  0
SECTION
  2
HEADER
  9
$ACADVER
  1
AC1018
  9
$ACADMAINTVER
 70
   104
  9
$DWGCODEPAGE
  3
ANSI_949
  9
$LASTSAVEDBY
  1
user0330
  9
$INSBASE
 10
0.0
 20
0.0
 30
0.0
  9
$EXTMIN
 10
-93.58047181875576
 20
-0.0009365327032356
 30
-0.0000000349181948
  9
$EXTMAX
 10
467.7862733878027
 20
396.925015486591
 30
0.0000000814935746
  9
$LIMMIN
 10
0.0
 20
0.0
  9
$LIMMAX
 10
420.0
 20
297.0
  9
$ORTHOMODE
 70
     0
  9
$REGENMODE
 70
     1
  9
$FILLMODE
 70
     1
  9
$QTEXTMODE
 70
     0
  9
$MIRRTEXT
 70
     0
  9
$LTSCALE
 40
1.0
  9
$ATTMODE
 70
     1
  9
$TEXTSIZE
 40
2.5
  9
$TRACEWID
 40
1.0
  9
$TEXTSTYLE
  7
Standard
  9
$CLAYER
  8
DKM5_DIM_LINE
  9
$CELTYPE
  6
ByLayer
  9
$CECOLOR
 62
   256
  9
$CELTSCALE
 40
1.0
  9
$DISPSILH
 70
     0
  9
$DIMSCALE
 40
1.0
  9
$DIMASZ
 40
3.5
  9
$DIMEXO
 40
1.625
  9
$DIMDLI
 40
10.0
  9
$DIMRND
 40
0.0
  9
$DIMDLE
 40
0.0
  9
$DIMEXE
 40
1.0
  9
$DIMTP
 40
0.0
  9
$DIMTM
 40
0.0
  9
$DIMTXT
 40
3.5
  9
$DIMCEN
 40
0.0
  9
$DIMTSZ
 40
0.0
  9
$DIMTOL
 70
     0
  9
$DIMLIM
 70
     0
  9
$DIMTIH
 70
     0
  9
$DIMTOH
 70
     0
  9
$DIMSE1
 70
     0
  9
$DIMSE2
 70
     0
  9
$DIMTAD
 70
     1
  9
$DIMZIN
 70
     8
  9
$DIMBLK
  1

  9
$DIMASO
 70
     1
  9
$DIMSHO
 70
     1
  9
$DIMPOST
  1

  9
$DIMAPOST
  1

  9
$DIMALT
 70
     0
  9
$DIMALTD
 70
     3
  9
$DIMALTF
 40
0.03937007874016
  9
$DIMLFAC
 40
1.0
  9
$DIMTOFL
 70
     1
  9
$DIMTVP
 40
0.0
  9
$DIMTIX
 70
     0
  9
$DIMSOXD
 70
     0
  9
$DIMSAH
 70
     0
  9
$DIMBLK1
  1

  9
$DIMBLK2
  1

  9
$DIMSTYLE
  2
DKM
  9
$DIMCLRD
 70
     1
  9
$DIMCLRE
 70
     1
  9
$DIMCLRT
 70
     2
  9
$DIMTFAC
 40
1.0
  9
$DIMGAP
 40
1.199999999999999
  9
$DIMJUST
 70
     0
  9
$DIMSD1
 70
     0
  9
$DIMSD2
 70
     0
  9
$DIMTOLJ
 70
     0
  9
$DIMTZIN
 70
     8
  9
$DIMALTZ
 70
     0
  9
$DIMALTTZ
 70
     0
  9
$DIMUPT
 70
     0
  9
$DIMDEC
 70
     2
  9
$DIMTDEC
 70
     2
  9
$DIMALTU
 70
     2
  9
$DIMALTTD
 70
     3
  9
$DIMTXSTY
  7
Standard
  9
$DIMAUNIT
 70
     0
  9
$DIMADEC
 70
     2
  9
$DIMALTRND
 40
0.0
  9
$DIMAZIN
 70
     2
  9
$DIMDSEP
 70
    46
  9
$DIMATFIT
 70
     3
  9
$DIMFRAC
 70
     0
  9
$DIMLDRBLK
  1

  9
$DIMLUNIT
 70
     2
  9
$DIMLWD
 70
    -2
  9
$DIMLWE
 70
    -2
  9
$DIMTMOVE
 70
     0
  9
$LUNITS
 70
     2
  9
$LUPREC
 70
     4
  9
$SKETCHINC
 40
1.0
  9
$FILLETRAD
 40
0.0
  9
$AUNITS
 70
     0
  9
$AUPREC
 70
     0
  9
$MENU
  1
.
  9
$ELEVATION
 40
0.0
  9
$PELEVATION
 40
0.0
  9
$THICKNESS
 40
0.0
  9
$LIMCHECK
 70
     0
  9
$CHAMFERA
 40
0.3
  9
$CHAMFERB
 40
0.3
  9
$CHAMFERC
 40
0.0
  9
$CHAMFERD
 40
0.0
  9
$SKPOLY
 70
     0
  9
$TDCREATE
 40
2456303.519465347
  9
$TDUCREATE
 40
2456303.144465348
  9
$TDUPDATE
 40
2457487.607495683
  9
$TDUUPDATE
 40
2457487.232495683
  9
$TDINDWG
 40
0.2169468519
  9
$TDUSRTIMER
 40
0.2169464931
  9
$USRTIMER
 70
     1
  9
$ANGBASE
 50
0.0
  9
$ANGDIR
 70
     0
  9
$PDMODE
 70
     0
  9
$PDSIZE
 40
0.0
  9
$PLINEWID
 40
0.0
  9
$SPLFRAME
 70
     0
  9
$SPLINETYPE
 70
     6
  9
$SPLINESEGS
 70
     8
  9
$HANDSEED
  5
EB8B
  9
$SURFTAB1
 70
     6
  9
$SURFTAB2
 70
     6
  9
$SURFTYPE
 70
     6
  9
$SURFU
 70
     6
  9
$SURFV
 70
     6
  9
$UCSBASE
  2

  9
$UCSNAME
  2

  9
$UCSORG
 10
0.0
 20
0.0
 30
0.0
  9
$UCSXDIR
 10
1.0
 20
0.0
 30
0.0
  9
$UCSYDIR
 10
0.0
 20
1.0
 30
0.0
  9
$UCSORTHOREF
  2

  9
$UCSORTHOVIEW
 70
     0
  9
$UCSORGTOP
 10
0.0
 20
0.0
 30
0.0
  9
$UCSORGBOTTOM
 10
0.0
 20
0.0
 30
0.0
  9
$UCSORGLEFT
 10
0.0
 20
0.0
 30
0.0
  9
$UCSORGRIGHT
 10
0.0
 20
0.0
 30
0.0
  9
$UCSORGFRONT
 10
0.0
 20
0.0
 30
0.0
  9
$UCSORGBACK
 10
0.0
 20
0.0
 30
0.0
  9
$PUCSBASE
  2

  9
$PUCSNAME
  2

  9
$PUCSORG
 10
0.0
 20
0.0
 30
0.0
  9
$PUCSXDIR
 10
1.0
 20
0.0
 30
0.0
  9
$PUCSYDIR
 10
0.0
 20
1.0
 30
0.0
  9
$PUCSORTHOREF
  2

  9
$PUCSORTHOVIEW
 70
     0
  9
$PUCSORGTOP
 10
0.0
 20
0.0
 30
0.0
  9
$PUCSORGBOTTOM
 10
0.0
 20
0.0
 30
0.0
  9
$PUCSORGLEFT
 10
0.0
 20
0.0
 30
0.0
  9
$PUCSORGRIGHT
 10
0.0
 20
0.0
 30
0.0
  9
$PUCSORGFRONT
 10
0.0
 20
0.0
 30
0.0
  9
$PUCSORGBACK
 10
0.0
 20
0.0
 30
0.0
  9
$USERI1
 70
     0
  9
$USERI2
 70
     0
  9
$USERI3
 70
     0
  9
$USERI4
 70
     0
  9
$USERI5
 70
     0
  9
$USERR1
 40
0.0
  9
$USERR2
 40
0.0
  9
$USERR3
 40
0.0
  9
$USERR4
 40
0.0
  9
$USERR5
 40
0.0
  9
$WORLDVIEW
 70
     1
  9
$SHADEDGE
 70
     3
  9
$SHADEDIF
 70
    70
  9
$TILEMODE
 70
     1
  9
$MAXACTVP
 70
    64
  9
$PINSBASE
 10
0.0
 20
0.0
 30
0.0
  9
$PLIMCHECK
 70
     0
  9
$PEXTMIN
 10
0.0
 20
0.0
 30
0.0
  9
$PEXTMAX
 10
0.0
 20
0.0
 30
0.0
  9
$PLIMMIN
 10
0.0
 20
0.0
  9
$PLIMMAX
 10
12.0
 20
9.0
  9
$UNITMODE
 70
     0
  9
$VISRETAIN
 70
     1
  9
$PLINEGEN
 70
     0
  9
$PSLTSCALE
 70
     1
  9
$TREEDEPTH
 70
  3020
  9
$CMLSTYLE
  2
Standard
  9
$CMLJUST
 70
     0
  9
$CMLSCALE
 40
20.0
  9
$PROXYGRAPHICS
 70
     1
  9
$MEASUREMENT
 70
     1
  9
$CELWEIGHT
370
    -1
  9
$ENDCAPS
280
     0
  9
$JOINSTYLE
280
     0
  9
$LWDISPLAY
290
     0
  9
$INSUNITS
 70
     4
  9
$HYPERLINKBASE
  1

  9
$STYLESHEET
  1
DKM.ctb
  9
$XEDIT
290
     1
  9
$CEPSNTYPE
380
     0
  9
$PSTYLEMODE
290
     1
  9
$FINGERPRINTGUID
  2
{01E23CE8-8EEE-45FE-9947-DEDEAD8F0145}
  9
$VERSIONGUID
  2
{A9FDDFC5-88EA-4381-99CE-32E0201E1103}
  9
$EXTNAMES
290
     1
  9
$PSVPSCALE
 40
0.0
  9
$OLESTARTUP
290
     0
  9
$SORTENTS
280
   127
  9
$INDEXCTL
280
     0
  9
$HIDETEXT
280
     1
  9
$XCLIPFRAME
290
     1
  9
$HALOGAP
280
     0
  9
$OBSCOLOR
 70
   257
  9
$OBSLTYPE
280
     0
  9
$INTERSECTIONDISPLAY
280
     0
  9
$INTERSECTIONCOLOR
 70
   257
  9
$DIMASSOC
280
     2
  9
$PROJECTNAME
  1

  0
ENDSEC
  0
SECTION
  2
CLASSES
  0
CLASS
  1
ACDBDICTIONARYWDFLT
  2
AcDbDictionaryWithDefault
  3
ObjectDBX Classes
 90
        0
 91
        1
280
     0
281
     0
  0
CLASS
  1
DICTIONARYVAR
  2
AcDbDictionaryVar
  3
ObjectDBX Classes
 90
        0
 91
        6
280
     0
281
     0
  0
CLASS
  1
TABLESTYLE
  2
AcDbTableStyle
  3
ObjectDBX Classes
 90
     4095
 91
        1
280
     0
281
     0
  0
CLASS
  1
MATERIAL
  2
AcDbMaterial
  3
ObjectDBX Classes
 90
     1153
 91
        3
280
     0
281
     0
  0
CLASS
  1
SORTENTSTABLE
  2
AcDbSortentsTable
  3
ObjectDBX Classes
 90
        0
 91
        1
280
     0
281
     0
  0
CLASS
  1
DIMASSOC
  2
AcDbDimAssoc
  3
"AcDbDimAssoc|Product Desc:     AcDim ARX App For Dimension|Company:          Autodesk, Inc.|WEB Address:      www.autodesk.com"
 90
        0
 91
       22
280
     0
281
     0
  0
CLASS
  1
VISUALSTYLE
  2
AcDbVisualStyle
  3
ObjectDBX Classes
 90
     4095
 91
       26
280
     1
281
     0
  0
CLASS
  1
SCALE
  2
AcDbScale
  3
ObjectDBX Classes
 90
     1153
 91
       17
280
     1
281
     0
  0
CLASS
  1
MLEADERSTYLE
  2
AcDbMLeaderStyle
  3
ACDB_MLEADERSTYLE_CLASS
 90
     4095
 91
        1
280
     1
281
     0
  0
CLASS
  1
EXACXREFPANELOBJECT
  2
ExAcXREFPanelObject
  3
EXAC_ESW
 90
     1025
 91
        0
280
     1
281
     0
  0
CLASS
  1
NPOCOLLECTION
  2
AcDbImpNonPersistentObjectsCollection
  3
ObjectDBX Classes
 90
     1153
 91
        0
280
     1
281
     0
  0
CLASS
  1
CELLSTYLEMAP
  2
AcDbCellStyleMap
  3
ObjectDBX Classes
 90
     1152
 91
        2
280
     1
281
     0
  0
CLASS
  1
MULTILEADER
  2
AcDbMLeader
  3
ACDB_MLEADER_CLASS
 90
     1025
 91
        1
280
     1
281
     1
  0
CLASS
  1
ACDB_MLEADEROBJECTCONTEXTDATA_CLASS
  2
AcDbMLeaderObjectContextData
  3
ObjectDBX Classes
 90
     1153
 91
        1
280
     1
281
     0
  0
ENDSEC
  0
SECTION
  2
TABLES
  0
TABLE
  2
VPORT
  5
8
102
{ACAD_XDICTIONARY
360
C6BD
102
}
330
0
100
AcDbSymbolTable
 70
     1
  0
VPORT
  5
5994
330
8
100
AcDbSymbolTableRecord
100
AcDbViewportTableRecord
  2
*Active
 70
     0
 10
0.0
 20
0.0
 11
1.0
 21
1.0
 12
946.4482121538436
 22
86.54330800238041
 13
0.0
 23
0.0
 14
10.0
 24
10.0
 15
10.0
 25
10.0
 16
0.0
 26
0.0
 36
1.0
 17
0.0
 27
0.0
 37
0.0
 40
1350.223480592251
 41
2.573089700996677
 42
50.0
 43
0.0
 44
0.0
 50
0.0
 51
0.0
 71
     0
 72
  1000
 73
     1
 74
     3
 75
     0
 76
     0
 77
     0
 78
     0
281
     0
 65
     1
110
0.0
120
0.0
130
0.0
111
1.0
121
0.0
131
0.0
112
0.0
122
1.0
132
0.0
 79
     0
146
0.0
1001
ACAD_NAV_VCDISPLAY
1070
     3
  0
ENDTAB
  0
TABLE
  2
LTYPE
  5
5
330
0
100
AcDbSymbolTable
 70
     6
  0
LTYPE
  5
14
330
5
100
AcDbSymbolTableRecord
100
AcDbLinetypeTableRecord
  2
ByBlock
 70
     0
  3

 72
    65
 73
     0
 40
0.0
  0
LTYPE
  5
15
330
5
100
AcDbSymbolTableRecord
100
AcDbLinetypeTableRecord
  2
ByLayer
 70
     0
  3

 72
    65
 73
     0
 40
0.0
  0
LTYPE
  5
16
330
5
100
AcDbSymbolTableRecord
100
AcDbLinetypeTableRecord
  2
Continuous
 70
     0
  3
Solid line
 72
    65
 73
     0
 40
0.0
  0
LTYPE
  5
4B1
330
5
100
AcDbSymbolTableRecord
100
AcDbLinetypeTableRecord
  2
CENTER2
 70
     0
  3
Center (.5x) ___ _ ___ _ ___ _ ___ _ ___ _ ___
 72
    65
 73
     4
 40
28.575
 49
19.05
 74
     0
 49
-3.174999999999999
 74
     0
 49
3.174999999999999
 74
     0
 49
-3.174999999999999
 74
     0
  0
LTYPE
  5
4B2
330
5
100
AcDbSymbolTableRecord
100
AcDbLinetypeTableRecord
  2
HIDDEN2
 70
     0
  3
Hidden (.5x) _ _ _ _ _ _ _ _ _ _ _ _ _ _ _ _ _
 72
    65
 73
     2
 40
4.762499999999998
 49
3.174999999999999
 74
     0
 49
-1.587499999999999
 74
     0
  0
LTYPE
  5
4B3
330
5
100
AcDbSymbolTableRecord
100
AcDbLinetypeTableRecord
  2
PHANTOM2
 70
     0
  3
Phantom (.5x) ___ _ _ ___ _ _ ___ _ _ ___ _ _
 72
    65
 73
     6
 40
31.75
 49
15.875
 74
     0
 49
-3.174999999999999
 74
     0
 49
3.174999999999999
 74
     0
 49
-3.174999999999999
 74
     0
 49
3.174999999999999
 74
     0
 49
-3.174999999999999
 74
     0
  0
LTYPE
  5
9B80
330
5
100
AcDbSymbolTableRecord
100
AcDbLinetypeTableRecord
  2
CENTER
 70
     0
  3
Center ____ _ ____ _ ____ _ ____ _ ____ _ ____
 72
    65
 73
     4
 40
2.0
 49
1.25
 74
     0
 49
-0.25
 74
     0
 49
0.25
 74
     0
 49
-0.25
 74
     0
  0
LTYPE
  5
9B81
330
5
100
AcDbSymbolTableRecord
100
AcDbLinetypeTableRecord
  2
HIDDEN
 70
     0
  3
__ __ __ __ __ __ __ __ __ __ __ __ __ __ __ __
 72
    65
 73
     2
 40
0.375
 49
0.25
 74
     0
 49
-0.125
 74
     0
  0
ENDTAB
  0
TABLE
  2
LAYER
  5
2
102
{ACAD_XDICTIONARY
360
FF
102
}
330
0
100
AcDbSymbolTable
 70
    14
  0
LAYER
  5
10
102
{ACAD_XDICTIONARY
360
5A13
102
}
330
2
100
AcDbSymbolTableRecord
100
AcDbLayerTableRecord
  2
0
 70
     0
 62
     7
  6
Continuous
370
    -3
390
F
  0
LAYER
  5
F7
102
{ACAD_XDICTIONARY
360
5A17
102
}
330
2
100
AcDbSymbolTableRecord
100
AcDbLayerTableRecord
  2
DKM2_OUTLINE
 70
     0
 62
     3
  6
Continuous
370
    35
390
F
1001
AcAecLayerStandard
1000

1000

  0
LAYER
  5
2CD
330
2
100
AcDbSymbolTableRecord
100
AcDbLayerTableRecord
  2
Defpoints
 70
     0
 62
     7
  6
Continuous
290
     0
370
    -3
390
F
  0
LAYER
  5
4A8
102
{ACAD_XDICTIONARY
360
5A19
102
}
330
2
100
AcDbSymbolTableRecord
100
AcDbLayerTableRecord
  2
DKM4_HIDDEN
 70
     0
 62
     2
  6
HIDDEN2
370
    25
390
F
1001
AcAecLayerStandard
1000

1000

  0
LAYER
  5
4A9
102
{ACAD_XDICTIONARY
360
5A1B
102
}
330
2
100
AcDbSymbolTableRecord
100
AcDbLayerTableRecord
  2
DKM7_TEXT
 70
     0
 62
     2
  6
Continuous
370
    18
390
F
1001
AcAecLayerStandard
1000

1000

  0
LAYER
  5
4AA
102
{ACAD_XDICTIONARY
360
5A1D
102
}
330
2
100
AcDbSymbolTableRecord
100
AcDbLayerTableRecord
  2
DKM9_BORDERLINE
 70
     0
 62
     4
  6
Continuous
370
    50
390
F
1001
AcAecLayerStandard
1000

1000

  0
LAYER
  5
4AB
102
{ACAD_XDICTIONARY
360
5A1F
102
}
330
2
100
AcDbSymbolTableRecord
100
AcDbLayerTableRecord
  2
DKM3_CENTER
 70
     0
 62
     1
  6
CENTER2
370
    18
390
F
1001
AcAecLayerStandard
1000

1000

  0
LAYER
  5
4AC
102
{ACAD_XDICTIONARY
360
5A21
102
}
330
2
100
AcDbSymbolTableRecord
100
AcDbLayerTableRecord
  2
DKM1_SOLIDLINE
 70
     0
 62
     1
  6
Continuous
370
    18
390
F
1001
AcAecLayerStandard
1000

1000

  0
LAYER
  5
4B4
102
{ACAD_XDICTIONARY
360
5A23
102
}
330
2
100
AcDbSymbolTableRecord
100
AcDbLayerTableRecord
  2
DKM5_DIM_LINE
 70
     0
 62
     1
  6
Continuous
370
    18
390
F
1001
AcAecLayerStandard
1000

1000

  0
LAYER
  5
9B82
330
2
100
AcDbSymbolTableRecord
100
AcDbLayerTableRecord
  2
OUT
 70
     0
 62
     3
  6
Continuous
370
    -3
390
F
  0
LAYER
  5
9B83
330
2
100
AcDbSymbolTableRecord
100
AcDbLayerTableRecord
  2
CEN
 70
     0
 62
     7
  6
CENTER
370
    -3
390
F
  0
LAYER
  5
9B84
330
2
100
AcDbSymbolTableRecord
100
AcDbLayerTableRecord
  2
HID
 70
     0
 62
     7
  6
HIDDEN
370
    -3
390
F
  0
LAYER
  5
EB79
102
{ACAD_XDICTIONARY
360
EB7A
102
}
330
2
100
AcDbSymbolTableRecord
100
AcDbLayerTableRecord
  2
DKM5_DIM_LINE @ 1
 70
     0
 62
     1
  6
Continuous
370
    18
390
F
1001
AcAecLayerStandard
1000

1000

1001
AcadAnnotativeDecomposition
1000
AnnotativeData
1002
{
1070
     1
1070
     1
1002
}
  0
ENDTAB
  0
TABLE
  2
STYLE
  5
3
330
0
100
AcDbSymbolTable
 70
     3
  0
STYLE
  5
11
330
3
100
AcDbSymbolTableRecord
100
AcDbTextStyleTableRecord
  2
Standard
 70
     0
 40
0.0
 41
1.0
 50
0.0
 71
     0
 42
2.5
  3
romans.shx
  4
whgtxt.shx
  0
STYLE
  5
D023
330
3
100
AcDbSymbolTableRecord
100
AcDbTextStyleTableRecord
  2
WHGTXT
 70
     0
 40
3.0
 41
0.8
 50
0.0
 71
     0
 42
3.0
  3
SIMPLEX.shx
  4
WHGTXT.shx
  0
ENDTAB
  0
TABLE
  2
VIEW
  5
6
330
0
100
AcDbSymbolTable
 70
     0
  0
ENDTAB
  0
TABLE
  2
UCS
  5
7
330
0
100
AcDbSymbolTable
 70
     0
  0
ENDTAB
  0
TABLE
  2
APPID
  5
9
330
0
100
AcDbSymbolTable
 70
    23
  0
APPID
  5
12
330
9
100
AcDbSymbolTableRecord
100
AcDbRegAppTableRecord
  2
ACAD
 70
     0
  0
APPID
  5
9E
330
9
100
AcDbSymbolTableRecord
100
AcDbRegAppTableRecord
  2
ACAD_PSEXT
 70
     0
  0
APPID
  5
FB
330
9
100
AcDbSymbolTableRecord
100
AcDbRegAppTableRecord
  2
AcAecLayerStandard
 70
     0
  0
APPID
  5
2E5
330
9
100
AcDbSymbolTableRecord
100
AcDbRegAppTableRecord
  2
ACAD_DSTYLE_DIMTEXT_FILL
 70
     0
  0
APPID
  5
2E6
330
9
100
AcDbSymbolTableRecord
100
AcDbRegAppTableRecord
  2
ACAD_DSTYLE_DIMEXT_LENGTH
 70
     0
  0
APPID
  5
2E7
330
9
100
AcDbSymbolTableRecord
100
AcDbRegAppTableRecord
  2
ACAD_DSTYLE_DIMEXT_ENABLED
 70
     0
  0
APPID
  5
2E8
330
9
100
AcDbSymbolTableRecord
100
AcDbRegAppTableRecord
  2
ACAD_DSTYLE_DIM_LINETYPE
 70
     0
  0
APPID
  5
2E9
330
9
100
AcDbSymbolTableRecord
100
AcDbRegAppTableRecord
  2
ACAD_DSTYLE_DIM_EXT1_LINETYPE
 70
     0
  0
APPID
  5
2EA
330
9
100
AcDbSymbolTableRecord
100
AcDbRegAppTableRecord
  2
ACAD_DSTYLE_DIM_EXT2_LINETYPE
 70
     0
  0
APPID
  5
5B0
330
9
100
AcDbSymbolTableRecord
100
AcDbRegAppTableRecord
  2
ACAD_EXEMPT_FROM_CAD_STANDARDS
 70
     0
  0
APPID
  5
67A
330
9
100
AcDbSymbolTableRecord
100
AcDbRegAppTableRecord
  2
ACAD_DSTYLE_DIMJOGGED_JOGANGLE_SYMBOL
 70
     0
  0
APPID
  5
20C2
330
9
100
AcDbSymbolTableRecord
100
AcDbRegAppTableRecord
  2
ACAD_DSTYLE_DIMARC_LENGTH_SYMBOL
 70
     0
  0
APPID
  5
5A06
330
9
100
AcDbSymbolTableRecord
100
AcDbRegAppTableRecord
  2
AcadAnnoPO
 70
     0
  0
APPID
  5
5A08
330
9
100
AcDbSymbolTableRecord
100
AcDbRegAppTableRecord
  2
ACAD_DSTYLE_DIMJAG
 70
     0
  0
APPID
  5
5A09
330
9
100
AcDbSymbolTableRecord
100
AcDbRegAppTableRecord
  2
ACAD_DSTYLE_DIMTALN
 70
     0
  0
APPID
  5
5AB5
330
9
100
AcDbSymbolTableRecord
100
AcDbRegAppTableRecord
  2
ACAD_MLEADERVER
 70
     0
  0
APPID
  5
5C94
330
9
100
AcDbSymbolTableRecord
100
AcDbRegAppTableRecord
  2
AcadAnnotative
 70
     0
  0
APPID
  5
6AB2
330
9
100
AcDbSymbolTableRecord
100
AcDbRegAppTableRecord
  2
GradientColor1ACI
 70
     0
  0
APPID
  5
6AB3
330
9
100
AcDbSymbolTableRecord
100
AcDbRegAppTableRecord
  2
GradientColor2ACI
 70
     0
  0
APPID
  5
9B8A
330
9
100
AcDbSymbolTableRecord
100
AcDbRegAppTableRecord
  2
ACET-TEXTMASK
 70
     0
  0
APPID
  5
9B8B
330
9
100
AcDbSymbolTableRecord
100
AcDbRegAppTableRecord
  2
ACAD_DSTYLE_DIMRADIAL_EXTENSION
 70
     0
  0
APPID
  5
9B8C
330
9
100
AcDbSymbolTableRecord
100
AcDbRegAppTableRecord
  2
ACAD_NAV_VCDISPLAY
 70
     0
  0
APPID
  5
B5AC
330
9
100
AcDbSymbolTableRecord
100
AcDbRegAppTableRecord
  2
AcadAnnotativeDecomposition
 70
     0
  0
ENDTAB
  0
TABLE
  2
DIMSTYLE
  5
A
330
0
100
AcDbSymbolTable
 70
     3
100
AcDbDimStyleTable
 71
     1
340
27
  0
DIMSTYLE
105
27
102
{ACAD_REACTORS
330
E41B
330
E433
330
E44F
330
E46B
330
E483
330
E4C8
330
E4E0
330
E4F8
330
E510
330
E538
330
E559
330
E571
330
E589
330
E5B3
330
E5CF
330
E5EB
330
E603
330
E61B
330
E633
330
E666
330
E67E
330
E6A5
102
}
330
A
100
AcDbSymbolTableRecord
100
AcDbDimStyleTableRecord
  2
DKM
 70
     0
 41
3.5
 42
1.625
 43
10.0
 44
1.0
 73
     0
 74
     0
 77
     1
 78
     8
 79
     2
140
3.5
141
0.0
143
0.03937007874016
147
1.199999999999999
171
     3
172
     1
176
     1
177
     1
178
     2
179
     2
271
     2
272
     2
274
     3
283
     0
284
     8
340
11
1001
ACAD_DSTYLE_DIMJAG
1070
   388
1040
1.5
1001
ACAD_DSTYLE_DIMTALN
1070
   392
1070
     0
1001
ACAD_DSTYLE_DIMEXT_LENGTH
1070
   378
1040
1.25
1001
ACAD_DSTYLE_DIMJOGGED_JOGANGLE_SYMBOL
1070
   384
1040
1.570796326794896
  0
DIMSTYLE
105
9B88
330
A
100
AcDbSymbolTableRecord
100
AcDbDimStyleTableRecord
  2
STANDARD
 70
     0
340
11
  0
ENDTAB
  0
TABLE
  2
BLOCK_RECORD
  5
1
330
0
100
AcDbSymbolTable
 70
    41
  0
BLOCK_RECORD
  5
1F
102
{ACAD_XDICTIONARY
360
566C
102
}
330
1
100
AcDbSymbolTableRecord
100
AcDbBlockTableRecord
  2
*Model_Space
340
22
  0
BLOCK_RECORD
  5
D2
330
1
100
AcDbSymbolTableRecord
100
AcDbBlockTableRecord
  2
*Paper_Space
340
D3
  0
BLOCK_RECORD
  5
D6
330
1
100
AcDbSymbolTableRecord
100
AcDbBlockTableRecord
  2
*Paper_Space0
340
D7
  0
BLOCK_RECORD
  5
E41C
330
1
100
AcDbSymbolTableRecord
100
AcDbBlockTableRecord
  2
*D18
340
0
  0
BLOCK_RECORD
  5
E434
330
1
100
AcDbSymbolTableRecord
100
AcDbBlockTableRecord
  2
*D19
340
0
  0
BLOCK_RECORD
  5
E450
330
1
100
AcDbSymbolTableRecord
100
AcDbBlockTableRecord
  2
*D20
340
0
  0
BLOCK_RECORD
  5
E46C
330
1
100
AcDbSymbolTableRecord
100
AcDbBlockTableRecord
  2
*D21
340
0
  0
BLOCK_RECORD
  5
E484
330
1
100
AcDbSymbolTableRecord
100
AcDbBlockTableRecord
  2
*D22
340
0
  0
BLOCK_RECORD
  5
E4C9
330
1
100
AcDbSymbolTableRecord
100
AcDbBlockTableRecord
  2
*D23
340
0
  0
BLOCK_RECORD
  5
E4E1
330
1
100
AcDbSymbolTableRecord
100
AcDbBlockTableRecord
  2
*D24
340
0
  0
BLOCK_RECORD
  5
E4F9
330
1
100
AcDbSymbolTableRecord
100
AcDbBlockTableRecord
  2
*D25
340
0
  0
BLOCK_RECORD
  5
E511
330
1
100
AcDbSymbolTableRecord
100
AcDbBlockTableRecord
  2
*D26
340
0
  0
BLOCK_RECORD
  5
E539
330
1
100
AcDbSymbolTableRecord
100
AcDbBlockTableRecord
  2
*D27
340
0
  0
BLOCK_RECORD
  5
E55A
330
1
100
AcDbSymbolTableRecord
100
AcDbBlockTableRecord
  2
*D28
340
0
  0
BLOCK_RECORD
  5
E572
330
1
100
AcDbSymbolTableRecord
100
AcDbBlockTableRecord
  2
*D29
340
0
  0
BLOCK_RECORD
  5
E58A
330
1
100
AcDbSymbolTableRecord
100
AcDbBlockTableRecord
  2
*D30
340
0
  0
BLOCK_RECORD
  5
E5B4
330
1
100
AcDbSymbolTableRecord
100
AcDbBlockTableRecord
  2
*D31
340
0
  0
BLOCK_RECORD
  5
E5D0
330
1
100
AcDbSymbolTableRecord
100
AcDbBlockTableRecord
  2
*D32
340
0
  0
BLOCK_RECORD
  5
E5EC
330
1
100
AcDbSymbolTableRecord
100
AcDbBlockTableRecord
  2
*D33
340
0
  0
BLOCK_RECORD
  5
E604
330
1
100
AcDbSymbolTableRecord
100
AcDbBlockTableRecord
  2
*D34
340
0
  0
BLOCK_RECORD
  5
E61C
330
1
100
AcDbSymbolTableRecord
100
AcDbBlockTableRecord
  2
*D35
340
0
  0
BLOCK_RECORD
  5
E634
330
1
100
AcDbSymbolTableRecord
100
AcDbBlockTableRecord
  2
*D36
340
0
  0
BLOCK_RECORD
  5
E667
330
1
100
AcDbSymbolTableRecord
100
AcDbBlockTableRecord
  2
*D37
340
0
  0
BLOCK_RECORD
  5
E67F
330
1
100
AcDbSymbolTableRecord
100
AcDbBlockTableRecord
  2
*D38
340
0
  0
BLOCK_RECORD
  5
E6A6
330
1
100
AcDbSymbolTableRecord
100
AcDbBlockTableRecord
  2
*D39
340
0
  0
ENDTAB
  0
ENDSEC
  0
SECTION
  2
BLOCKS
  0
BLOCK
  5
20
330
1F
100
AcDbEntity
  8
0
100
AcDbBlockBegin
  2
*Model_Space
 70
     0
 10
0.0
 20
0.0
 30
0.0
  3
*Model_Space
  1

  0
ENDBLK
  5
21
330
1F
100
AcDbEntity
  8
0
100
AcDbBlockEnd
  0
BLOCK
  5
D4
330
D2
100
AcDbEntity
 67
     1
  8
0
100
AcDbBlockBegin
  2
*Paper_Space
 70
     0
 10
0.0
 20
0.0
 30
0.0
  3
*Paper_Space
  1

  0
ENDBLK
  5
D5
330
D2
100
AcDbEntity
 67
     1
  8
0
100
AcDbBlockEnd
  0
BLOCK
  5
D8
330
D6
100
AcDbEntity
 67
     1
  8
0
100
AcDbBlockBegin
  2
*Paper_Space0
 70
     0
 10
0.0
 20
0.0
 30
0.0
  3
*Paper_Space0
  1

  0
ENDBLK
  5
D9
330
D6
100
AcDbEntity
 67
     1
  8
0
100
AcDbBlockEnd
  0
BLOCK
  5
E41D
330
E41C
100
AcDbEntity
  8
0
100
AcDbBlockBegin
  2
*D18
 70
     1
 10
0.0
 20
0.0
 30
0.0
  3
*D18
  1

  0
LINE
  5
EA5E
330
E41C
100
AcDbEntity
  8
DKM5_DIM_LINE
 62
     1
440
 16777216
370
    -2
100
AcDbLine
 10
85.88985847239564
 20
109.5601684041433
 30
0.0
 11
85.88985847239564
 21
90.38535119398261
 31
0.0
  0
LINE
  5
EA5F
330
E41C
100
AcDbEntity
  8
DKM5_DIM_LINE
 62
     1
440
 16777216
370
    -2
100
AcDbLine
 10
231.8898584723958
 20
109.5601684041432
 30
0.0
 11
231.8898584723958
 21
90.38535119398261
 31
0.0
  0
LINE
  5
EA60
330
E41C
100
AcDbEntity
  8
DKM5_DIM_LINE
 62
     1
440
 16777216
370
    -2
100
AcDbLine
 10
89.38985847239564
 20
91.38535119398261
 30
0.0
 11
228.3898584723957
 21
91.38535119398261
 31
0.0
  0
SOLID
  5
EA61
330
E41C
100
AcDbEntity
  8
DKM5_DIM_LINE
 62
     1
440
 16777216
100
AcDbTrace
 10
89.38985847239564
 20
91.96868452731594
 30
0.0
 11
89.38985847239564
 21
90.80201786064929
 31
0.0
 12
85.88985847239564
 22
91.38535119398261
 32
0.0
 13
85.88985847239564
 23
91.38535119398261
 33
0.0
  0
SOLID
  5
EA62
330
E41C
100
AcDbEntity
  8
DKM5_DIM_LINE
 62
     1
440
 16777216
100
AcDbTrace
 10
228.3898584723957
 20
91.96868452731594
 30
0.0
 11
228.3898584723957
 21
90.80201786064929
 31
0.0
 12
231.8898584723958
 22
91.38535119398261
 32
0.0
 13
231.8898584723958
 23
91.38535119398261
 33
0.0
  0
MTEXT
  5
EA63
330
E41C
100
AcDbEntity
  8
DKM5_DIM_LINE
 62
     2
440
 16777216
100
AcDbMText
 10
158.8898584723957
 20
94.33535119398262
 30
0.0
 40
3.5
 41
0.0
 71
     5
 72
     1
  1
146
 73
     1
 44
1.0
  0
POINT
  5
EA64
330
E41C
100
AcDbEntity
  8
Defpoints
 62
     0
440
 16777216
100
AcDbPoint
 10
85.88985847239564
 20
111.1851684041433
 30
0.0
  0
POINT
  5
EA65
330
E41C
100
AcDbEntity
  8
Defpoints
 62
     0
440
 16777216
100
AcDbPoint
 10
231.8898584723958
 20
111.1851684041432
 30
0.0
  0
POINT
  5
EA66
330
E41C
100
AcDbEntity
  8
Defpoints
 62
     0
440
 16777216
100
AcDbPoint
 10
231.8898584723958
 20
91.38535119398261
 30
0.0
  0
ENDBLK
  5
E41E
330
E41C
100
AcDbEntity
  8
0
100
AcDbBlockEnd
  0
BLOCK
  5
E435
330
E434
100
AcDbEntity
  8
0
100
AcDbBlockBegin
  2
*D19
 70
     1
 10
0.0
 20
0.0
 30
0.0
  3
*D19
  1

  0
LINE
  5
E97C
330
E434
100
AcDbEntity
  8
DKM5_DIM_LINE
 62
     1
440
 16777216
370
    -2
100
AcDbLine
 10
182.2648584723956
 20
112.1851684041432
 30
0.0
 11
176.0842803647145
 21
112.1851684041432
 31
0.0
  0
LINE
  5
E97D
330
E434
100
AcDbEntity
  8
DKM5_DIM_LINE
 62
     1
440
 16777216
370
    -2
100
AcDbLine
 10
182.2648584723956
 20
111.1851684041432
 30
0.0
 11
176.0842803647145
 21
111.1851684041432
 31
0.0
  0
LINE
  5
E97E
330
E434
100
AcDbEntity
  8
DKM5_DIM_LINE
 62
     1
440
 16777216
370
    -2
100
AcDbLine
 10
177.0842803647146
 20
115.6851684041432
 30
0.0
 11
177.0842803647146
 21
119.1851684041433
 31
0.0
  0
LINE
  5
E97F
330
E434
100
AcDbEntity
  8
DKM5_DIM_LINE
 62
     1
440
 16777216
370
    -2
100
AcDbLine
 10
177.0842803647146
 20
107.6851684041432
 30
0.0
 11
177.0842803647146
 21
100.9518350708099
 31
0.0
  0
LINE
  5
E980
330
E434
100
AcDbEntity
  8
DKM5_DIM_LINE
 62
     1
440
 16777216
370
    -2
100
AcDbLine
 10
177.0842803647146
 20
112.1851684041432
 30
0.0
 11
177.0842803647146
 21
111.1851684041432
 31
0.0
  0
SOLID
  5
E981
330
E434
100
AcDbEntity
  8
DKM5_DIM_LINE
 62
     1
440
 16777216
100
AcDbTrace
 10
176.5009470313812
 20
115.6851684041432
 30
0.0
 11
177.6676136980479
 21
115.6851684041432
 31
0.0
 12
177.0842803647146
 22
112.1851684041432
 32
0.0
 13
177.0842803647146
 23
112.1851684041432
 33
0.0
  0
SOLID
  5
E982
330
E434
100
AcDbEntity
  8
DKM5_DIM_LINE
 62
     1
440
 16777216
100
AcDbTrace
 10
176.5009470313812
 20
107.6851684041432
 30
0.0
 11
177.6676136980479
 21
107.6851684041432
 31
0.0
 12
177.0842803647146
 22
111.1851684041432
 32
0.0
 13
177.0842803647146
 23
111.1851684041432
 33
0.0
  0
MTEXT
  5
E983
330
E434
100
AcDbEntity
  8
DKM5_DIM_LINE
 62
     2
440
 16777216
100
AcDbMText
 10
174.1342803647145
 20
102.5685017374766
 30
0.0
 40
3.5
 41
0.0
 71
     5
 72
     1
  1
1
 11
0.0000000000000001
 21
1.0
 31
0.0
 73
     1
 44
1.0
  0
POINT
  5
E984
330
E434
100
AcDbEntity
  8
Defpoints
 62
     0
440
 16777216
100
AcDbPoint
 10
183.8898584723956
 20
112.1851684041432
 30
0.0
  0
POINT
  5
E985
330
E434
100
AcDbEntity
  8
Defpoints
 62
     0
440
 16777216
100
AcDbPoint
 10
183.8898584723956
 20
111.1851684041432
 30
0.0
  0
POINT
  5
E986
330
E434
100
AcDbEntity
  8
Defpoints
 62
     0
440
 16777216
100
AcDbPoint
 10
177.0842803647146
 20
111.1851684041432
 30
0.0
  0
ENDBLK
  5
E436
330
E434
100
AcDbEntity
  8
0
100
AcDbBlockEnd
  0
BLOCK
  5
E451
330
E450
100
AcDbEntity
  8
0
100
AcDbBlockBegin
  2
*D20
 70
     1
 10
0.0
 20
0.0
 30
0.0
  3
*D20
  1

  0
LINE
  5
E987
330
E450
100
AcDbEntity
  8
DKM5_DIM_LINE
 62
     1
440
 16777216
370
    -2
100
AcDbLine
 10
233.5148584723957
 20
111.1851684041432
 30
0.0
 11
244.6978620877384
 21
111.1851684041432
 31
0.0
  0
LINE
  5
E988
330
E450
100
AcDbEntity
  8
DKM5_DIM_LINE
 62
     1
440
 16777216
370
    -2
100
AcDbLine
 10
230.5148584723958
 20
120.1851684041432
 30
0.0
 11
244.6978620877384
 21
120.1851684041432
 31
0.0
  0
LINE
  5
E989
330
E450
100
AcDbEntity
  8
DKM5_DIM_LINE
 62
     1
440
 16777216
370
    -2
100
AcDbLine
 10
243.6978620877384
 20
107.6851684041432
 30
0.0
 11
243.6978620877384
 21
104.1851684041432
 31
0.0
  0
LINE
  5
E98A
330
E450
100
AcDbEntity
  8
DKM5_DIM_LINE
 62
     1
440
 16777216
370
    -2
100
AcDbLine
 10
243.6978620877384
 20
123.6851684041432
 30
0.0
 11
243.6978620877384
 21
127.1851684041432
 31
0.0
  0
LINE
  5
E98B
330
E450
100
AcDbEntity
  8
DKM5_DIM_LINE
 62
     1
440
 16777216
370
    -2
100
AcDbLine
 10
243.6978620877384
 20
111.1851684041432
 30
0.0
 11
243.6978620877384
 21
120.1851684041432
 31
0.0
  0
SOLID
  5
E98C
330
E450
100
AcDbEntity
  8
DKM5_DIM_LINE
 62
     1
440
 16777216
100
AcDbTrace
 10
243.114528754405
 20
107.6851684041432
 30
0.0
 11
244.2811954210717
 21
107.6851684041432
 31
0.0
 12
243.6978620877384
 22
111.1851684041432
 32
0.0
 13
243.6978620877384
 23
111.1851684041432
 33
0.0
  0
SOLID
  5
E98D
330
E450
100
AcDbEntity
  8
DKM5_DIM_LINE
 62
     1
440
 16777216
100
AcDbTrace
 10
243.114528754405
 20
123.6851684041432
 30
0.0
 11
244.2811954210717
 21
123.6851684041432
 31
0.0
 12
243.6978620877384
 22
120.1851684041432
 32
0.0
 13
243.6978620877384
 23
120.1851684041432
 33
0.0
  0
MTEXT
  5
E98E
330
E450
100
AcDbEntity
  8
DKM5_DIM_LINE
 62
     2
440
 16777216
100
AcDbMText
 10
240.7478620877383
 20
115.6851684041433
 30
0.0
 40
3.5
 41
0.0
 71
     5
 72
     1
  1
9
 11
0.0000000000000001
 21
1.0
 31
0.0
 73
     1
 44
1.0
  0
POINT
  5
E98F
330
E450
100
AcDbEntity
  8
Defpoints
 62
     0
440
 16777216
100
AcDbPoint
 10
231.8898584723958
 20
111.1851684041432
 30
0.0
  0
POINT
  5
E990
330
E450
100
AcDbEntity
  8
Defpoints
 62
     0
440
 16777216
100
AcDbPoint
 10
228.8898584723958
 20
120.1851684041432
 30
0.0
  0
POINT
  5
E991
330
E450
100
AcDbEntity
  8
Defpoints
 62
     0
440
 16777216
100
AcDbPoint
 10
243.6978620877384
 20
120.1851684041432
 30
0.0
  0
ENDBLK
  5
E452
330
E450
100
AcDbEntity
  8
0
100
AcDbBlockEnd
  0
BLOCK
  5
E46D
330
E46C
100
AcDbEntity
  8
0
100
AcDbBlockBegin
  2
*D21
 70
     1
 10
0.0
 20
0.0
 30
0.0
  3
*D21
  1

  0
LINE
  5
E992
330
E46C
100
AcDbEntity
  8
DKM5_DIM_LINE
 62
     1
440
 16777216
370
    -2
100
AcDbLine
 10
84.26485847239565
 20
111.1851684041433
 30
0.0
 11
72.69786208773836
 21
111.1851684041433
 31
0.0
  0
LINE
  5
E993
330
E46C
100
AcDbEntity
  8
DKM5_DIM_LINE
 62
     1
440
 16777216
370
    -2
100
AcDbLine
 10
97.26485847239576
 20
177.1851684041433
 30
0.0
 11
72.69786208773837
 21
177.1851684041433
 31
0.0
  0
LINE
  5
E994
330
E46C
100
AcDbEntity
  8
DKM5_DIM_LINE
 62
     1
440
 16777216
370
    -2
100
AcDbLine
 10
73.69786208773835
 20
114.6851684041433
 30
0.0
 11
73.69786208773837
 21
173.6851684041433
 31
0.0
  0
SOLID
  5
E995
330
E46C
100
AcDbEntity
  8
DKM5_DIM_LINE
 62
     1
440
 16777216
100
AcDbTrace
 10
73.11452875440503
 20
114.6851684041433
 30
0.0
 11
74.28119542107168
 21
114.6851684041433
 31
0.0
 12
73.69786208773835
 22
111.1851684041433
 32
0.0
 13
73.69786208773835
 23
111.1851684041433
 33
0.0
  0
SOLID
  5
E996
330
E46C
100
AcDbEntity
  8
DKM5_DIM_LINE
 62
     1
440
 16777216
100
AcDbTrace
 10
73.11452875440505
 20
173.6851684041433
 30
0.0
 11
74.2811954210717
 21
173.6851684041433
 31
0.0
 12
73.69786208773837
 22
177.1851684041433
 32
0.0
 13
73.69786208773837
 23
177.1851684041433
 33
0.0
  0
MTEXT
  5
E997
330
E46C
100
AcDbEntity
  8
DKM5_DIM_LINE
 62
     2
440
 16777216
100
AcDbMText
 10
70.74786208773834
 20
144.1851684041433
 30
0.0
 40
3.5
 41
0.0
 71
     5
 72
     1
  1
66%%P0.5
 11
0.0000000000000001
 21
1.0
 31
0.0
 73
     1
 44
1.0
  0
POINT
  5
E998
330
E46C
100
AcDbEntity
  8
Defpoints
 62
     0
440
 16777216
100
AcDbPoint
 10
85.88985847239564
 20
111.1851684041433
 30
0.0
  0
POINT
  5
E999
330
E46C
100
AcDbEntity
  8
Defpoints
 62
     0
440
 16777216
100
AcDbPoint
 10
98.88985847239576
 20
177.1851684041433
 30
0.0
  0
POINT
  5
E99A
330
E46C
100
AcDbEntity
  8
Defpoints
 62
     0
440
 16777216
100
AcDbPoint
 10
73.69786208773837
 20
177.1851684041433
 30
0.0
  0
ENDBLK
  5
E46E
330
E46C
100
AcDbEntity
  8
0
100
AcDbBlockEnd
  0
BLOCK
  5
E485
330
E484
100
AcDbEntity
  8
0
100
AcDbBlockBegin
  2
*D22
 70
     1
 10
0.0
 20
0.0
 30
0.0
  3
*D22
  1

  0
LINE
  5
E99B
330
E484
100
AcDbEntity
  8
DKM5_DIM_LINE
 62
     1
440
 16777216
370
    -2
100
AcDbLine
 10
84.26485847239565
 20
111.1851684041433
 30
0.0
 11
62.69786208773835
 21
111.1851684041433
 31
0.0
  0
LINE
  5
E99C
330
E484
100
AcDbEntity
  8
DKM5_DIM_LINE
 62
     1
440
 16777216
370
    -2
100
AcDbLine
 10
101.2648584723956
 20
185.1851684041433
 30
0.0
 11
62.69786208773837
 21
185.1851684041433
 31
0.0
  0
LINE
  5
E99D
330
E484
100
AcDbEntity
  8
DKM5_DIM_LINE
 62
     1
440
 16777216
370
    -2
100
AcDbLine
 10
63.69786208773835
 20
114.6851684041433
 30
0.0
 11
63.69786208773837
 21
181.6851684041433
 31
0.0
  0
SOLID
  5
E99E
330
E484
100
AcDbEntity
  8
DKM5_DIM_LINE
 62
     1
440
 16777216
100
AcDbTrace
 10
63.11452875440502
 20
114.6851684041433
 30
0.0
 11
64.28119542107168
 21
114.6851684041433
 31
0.0
 12
63.69786208773835
 22
111.1851684041433
 32
0.0
 13
63.69786208773835
 23
111.1851684041433
 33
0.0
  0
SOLID
  5
E99F
330
E484
100
AcDbEntity
  8
DKM5_DIM_LINE
 62
     1
440
 16777216
100
AcDbTrace
 10
63.11452875440504
 20
181.6851684041433
 30
0.0
 11
64.2811954210717
 21
181.6851684041433
 31
0.0
 12
63.69786208773837
 22
185.1851684041433
 32
0.0
 13
63.69786208773837
 23
185.1851684041433
 33
0.0
  0
MTEXT
  5
E9A0
330
E484
100
AcDbEntity
  8
DKM5_DIM_LINE
 62
     2
440
 16777216
100
AcDbMText
 10
60.74786208773833
 20
148.1851684041433
 30
0.0
 40
3.5
 41
0.0
 71
     5
 72
     1
  1
74
 11
0.0000000000000001
 21
1.0
 31
0.0
 73
     1
 44
1.0
  0
POINT
  5
E9A1
330
E484
100
AcDbEntity
  8
Defpoints
 62
     0
440
 16777216
100
AcDbPoint
 10
85.88985847239564
 20
111.1851684041433
 30
0.0
  0
POINT
  5
E9A2
330
E484
100
AcDbEntity
  8
Defpoints
 62
     0
440
 16777216
100
AcDbPoint
 10
102.8898584723956
 20
185.1851684041433
 30
0.0
  0
POINT
  5
E9A3
330
E484
100
AcDbEntity
  8
Defpoints
 62
     0
440
 16777216
100
AcDbPoint
 10
63.69786208773837
 20
185.1851684041433
 30
0.0
  0
ENDBLK
  5
E486
330
E484
100
AcDbEntity
  8
0
100
AcDbBlockEnd
  0
BLOCK
  5
E4CA
330
E4C9
100
AcDbEntity
  8
0
100
AcDbBlockBegin
  2
*D23
 70
     1
 10
0.0
 20
0.0
 30
0.0
  3
*D23
  1

  0
LINE
  5
E9A4
330
E4C9
100
AcDbEntity
  8
DKM5_DIM_LINE
 62
     1
440
 16777216
370
    -2
100
AcDbLine
 10
112.8898584723956
 20
219.8101684041433
 30
0.0
 11
112.8898584723956
 21
243.6825688809967
 31
0.0
  0
LINE
  5
E9A5
330
E4C9
100
AcDbEntity
  8
DKM5_DIM_LINE
 62
     1
440
 16777216
370
    -2
100
AcDbLine
 10
204.8898584723957
 20
219.8101684041433
 30
0.0
 11
204.8898584723957
 21
243.6825688809967
 31
0.0
  0
LINE
  5
E9A6
330
E4C9
100
AcDbEntity
  8
DKM5_DIM_LINE
 62
     1
440
 16777216
370
    -2
100
AcDbLine
 10
116.3898584723956
 20
242.6825688809967
 30
0.0
 11
201.3898584723956
 21
242.6825688809967
 31
0.0
  0
SOLID
  5
E9A7
330
E4C9
100
AcDbEntity
  8
DKM5_DIM_LINE
 62
     1
440
 16777216
100
AcDbTrace
 10
116.3898584723956
 20
243.2659022143301
 30
0.0
 11
116.3898584723956
 21
242.0992355476634
 31
0.0
 12
112.8898584723956
 22
242.6825688809967
 32
0.0
 13
112.8898584723956
 23
242.6825688809967
 33
0.0
  0
SOLID
  5
E9A8
330
E4C9
100
AcDbEntity
  8
DKM5_DIM_LINE
 62
     1
440
 16777216
100
AcDbTrace
 10
201.3898584723956
 20
243.2659022143301
 30
0.0
 11
201.3898584723956
 21
242.0992355476634
 31
0.0
 12
204.8898584723957
 22
242.6825688809967
 32
0.0
 13
204.8898584723957
 23
242.6825688809967
 33
0.0
  0
MTEXT
  5
E9A9
330
E4C9
100
AcDbEntity
  8
DKM5_DIM_LINE
 62
     2
440
 16777216
100
AcDbMText
 10
158.8898584723956
 20
245.6325688809967
 30
0.0
 40
3.5
 41
0.0
 71
     5
 72
     1
  1
92
 73
     1
 44
1.0
  0
POINT
  5
E9AA
330
E4C9
100
AcDbEntity
  8
Defpoints
 62
     0
440
 16777216
100
AcDbPoint
 10
112.8898584723956
 20
218.1851684041433
 30
0.0
  0
POINT
  5
E9AB
330
E4C9
100
AcDbEntity
  8
Defpoints
 62
     0
440
 16777216
100
AcDbPoint
 10
204.8898584723957
 20
218.1851684041433
 30
0.0
  0
POINT
  5
E9AC
330
E4C9
100
AcDbEntity
  8
Defpoints
 62
     0
440
 16777216
100
AcDbPoint
 10
204.8898584723957
 20
242.6825688809967
 30
0.0
  0
ENDBLK
  5
E4CB
330
E4C9
100
AcDbEntity
  8
0
100
AcDbBlockEnd
  0
BLOCK
  5
E4E2
330
E4E1
100
AcDbEntity
  8
0
100
AcDbBlockBegin
  2
*D24
 70
     1
 10
0.0
 20
0.0
 30
0.0
  3
*D24
  1

  0
LINE
  5
E9AD
330
E4E1
100
AcDbEntity
  8
DKM5_DIM_LINE
 62
     1
440
 16777216
370
    -2
100
AcDbLine
 10
102.8898584723956
 20
186.8101684041432
 30
0.0
 11
102.8898584723956
 21
253.6825688809967
 31
0.0
  0
LINE
  5
E9AE
330
E4E1
100
AcDbEntity
  8
DKM5_DIM_LINE
 62
     1
440
 16777216
370
    -2
100
AcDbLine
 10
214.8898584723958
 20
186.8101684041433
 30
0.0
 11
214.8898584723958
 21
253.6825688809967
 31
0.0
  0
LINE
  5
E9AF
330
E4E1
100
AcDbEntity
  8
DKM5_DIM_LINE
 62
     1
440
 16777216
370
    -2
100
AcDbLine
 10
106.3898584723956
 20
252.6825688809967
 30
0.0
 11
211.3898584723957
 21
252.6825688809967
 31
0.0
  0
SOLID
  5
E9B0
330
E4E1
100
AcDbEntity
  8
DKM5_DIM_LINE
 62
     1
440
 16777216
100
AcDbTrace
 10
106.3898584723956
 20
253.2659022143301
 30
0.0
 11
106.3898584723956
 21
252.0992355476634
 31
0.0
 12
102.8898584723956
 22
252.6825688809967
 32
0.0
 13
102.8898584723956
 23
252.6825688809967
 33
0.0
  0
SOLID
  5
E9B1
330
E4E1
100
AcDbEntity
  8
DKM5_DIM_LINE
 62
     1
440
 16777216
100
AcDbTrace
 10
211.3898584723957
 20
253.2659022143301
 30
0.0
 11
211.3898584723957
 21
252.0992355476634
 31
0.0
 12
214.8898584723958
 22
252.6825688809967
 32
0.0
 13
214.8898584723958
 23
252.6825688809967
 33
0.0
  0
MTEXT
  5
E9B2
330
E4E1
100
AcDbEntity
  8
DKM5_DIM_LINE
 62
     2
440
 16777216
100
AcDbMText
 10
158.8898584723957
 20
255.6325688809967
 30
0.0
 40
3.5
 41
0.0
 71
     5
 72
     1
  1
112
 73
     1
 44
1.0
  0
POINT
  5
E9B3
330
E4E1
100
AcDbEntity
  8
Defpoints
 62
     0
440
 16777216
100
AcDbPoint
 10
102.8898584723956
 20
185.1851684041433
 30
0.0
  0
POINT
  5
E9B4
330
E4E1
100
AcDbEntity
  8
Defpoints
 62
     0
440
 16777216
100
AcDbPoint
 10
214.8898584723958
 20
185.1851684041433
 30
0.0
  0
POINT
  5
E9B5
330
E4E1
100
AcDbEntity
  8
Defpoints
 62
     0
440
 16777216
100
AcDbPoint
 10
214.8898584723958
 20
252.6825688809967
 30
0.0
  0
ENDBLK
  5
E4E3
330
E4E1
100
AcDbEntity
  8
0
100
AcDbBlockEnd
  0
BLOCK
  5
E4FA
330
E4F9
100
AcDbEntity
  8
0
100
AcDbBlockBegin
  2
*D25
 70
     1
 10
0.0
 20
0.0
 30
0.0
  3
*D25
  1

  0
LINE
  5
E9B6
330
E4F9
100
AcDbEntity
  8
DKM5_DIM_LINE
 62
     1
440
 16777216
370
    -2
100
AcDbLine
 10
233.5148584723957
 20
111.1851684041432
 30
0.0
 11
254.6978620877383
 21
111.1851684041432
 31
0.0
  0
LINE
  5
E9B7
330
E4F9
100
AcDbEntity
  8
DKM5_DIM_LINE
 62
     1
440
 16777216
370
    -2
100
AcDbLine
 10
201.5148584723956
 20
223.1851684041433
 30
0.0
 11
254.6978620877384
 21
223.1851684041433
 31
0.0
  0
LINE
  5
E9B8
330
E4F9
100
AcDbEntity
  8
DKM5_DIM_LINE
 62
     1
440
 16777216
370
    -2
100
AcDbLine
 10
253.6978620877384
 20
114.6851684041432
 30
0.0
 11
253.6978620877384
 21
219.6851684041433
 31
0.0
  0
SOLID
  5
E9B9
330
E4F9
100
AcDbEntity
  8
DKM5_DIM_LINE
 62
     1
440
 16777216
100
AcDbTrace
 10
253.114528754405
 20
114.6851684041432
 30
0.0
 11
254.2811954210717
 21
114.6851684041432
 31
0.0
 12
253.6978620877384
 22
111.1851684041432
 32
0.0
 13
253.6978620877384
 23
111.1851684041432
 33
0.0
  0
SOLID
  5
E9BA
330
E4F9
100
AcDbEntity
  8
DKM5_DIM_LINE
 62
     1
440
 16777216
100
AcDbTrace
 10
253.114528754405
 20
219.6851684041433
 30
0.0
 11
254.2811954210717
 21
219.6851684041433
 31
0.0
 12
253.6978620877384
 22
223.1851684041433
 32
0.0
 13
253.6978620877384
 23
223.1851684041433
 33
0.0
  0
MTEXT
  5
E9BB
330
E4F9
100
AcDbEntity
  8
DKM5_DIM_LINE
 62
     2
440
 16777216
100
AcDbMText
 10
250.7478620877383
 20
167.1851684041433
 30
0.0
 40
3.5
 41
0.0
 71
     5
 72
     1
  1
112
 11
0.0000000000000001
 21
1.0
 31
0.0
 73
     1
 44
1.0
  0
POINT
  5
E9BC
330
E4F9
100
AcDbEntity
  8
Defpoints
 62
     0
440
 16777216
100
AcDbPoint
 10
231.8898584723958
 20
111.1851684041432
 30
0.0
  0
POINT
  5
E9BD
330
E4F9
100
AcDbEntity
  8
Defpoints
 62
     0
440
 16777216
100
AcDbPoint
 10
199.8898584723956
 20
223.1851684041433
 30
0.0
  0
POINT
  5
E9BE
330
E4F9
100
AcDbEntity
  8
Defpoints
 62
     0
440
 16777216
100
AcDbPoint
 10
253.6978620877384
 20
223.1851684041433
 30
0.0
  0
ENDBLK
  5
E4FB
330
E4F9
100
AcDbEntity
  8
0
100
AcDbBlockEnd
  0
BLOCK
  5
E512
330
E511
100
AcDbEntity
  8
0
100
AcDbBlockBegin
  2
*D26
 70
     1
 10
0.0
 20
0.0
 30
0.0
  3
*D26
  1

  0
LINE
  5
EA56
330
E511
100
AcDbEntity
  8
DKM5_DIM_LINE
 62
     1
440
 16777216
370
    -2
100
AcDbLine
 10
239.4832891337026
 20
239.4702012565428
 30
0.0
 11
202.8039901983572
 21
211.123333274314
 31
0.0
  0
LINE
  5
EA57
330
E511
100
AcDbEntity
  8
DKM5_DIM_LINE
 62
     1
440
 16777216
370
    -2
100
AcDbLine
 10
114.9757267464345
 20
143.2470035339726
 30
0.0
 11
112.2063670880405
 21
141.1067589025204
 31
0.0
  0
MTEXT
  5
EA58
102
{ACAD_XDICTIONARY
360
EB89
102
}
330
E511
100
AcDbEntity
  8
DKM5_DIM_LINE
 62
     2
440
 16777216
100
AcDbMText
 10
226.9052408447745
 20
233.4778050453013
 30
0.0
 40
3.5
 41
0.0
 71
     5
 72
     1
  1
\U+2205104%%P0.3
 11
0.7912456166839919
 21
0.6114984661292043
 31
0.0
 73
     1
 44
1.0
  0
LINE
  5
EA59
330
E511
100
AcDbEntity
  8
DKM5_DIM_LINE
 62
     1
440
 16777216
370
    -2
100
AcDbLine
 10
117.7450864048285
 20
145.3872481654248
 30
0.0
 11
200.0346305399633
 21
208.9830886428619
 31
0.0
  0
SOLID
  5
EA5A
330
E511
100
AcDbEntity
  8
DKM5_DIM_LINE
 62
     1
440
 16777216
100
AcDbTrace
 10
114.6190193078591
 20
143.7085634770383
 30
0.0
 11
115.3324341850098
 21
142.785443590907
 31
0.0
 12
117.7450864048285
 22
145.3872481654248
 32
0.0
 13
117.7450864048285
 23
145.3872481654248
 33
0.0
  0
SOLID
  5
EA5B
330
E511
100
AcDbEntity
  8
DKM5_DIM_LINE
 62
     1
440
 16777216
100
AcDbTrace
 10
202.4472827597818
 20
211.5848932173797
 30
0.0
 11
203.1606976369326
 21
210.6617733312484
 31
0.0
 12
200.0346305399633
 22
208.9830886428619
 32
0.0
 13
200.0346305399633
 23
208.9830886428619
 33
0.0
  0
POINT
  5
EA5C
330
E511
100
AcDbEntity
  8
Defpoints
 62
     0
440
 16777216
100
AcDbPoint
 10
200.0346305399633
 20
208.9830886428619
 30
0.0
  0
POINT
  5
EA5D
330
E511
100
AcDbEntity
  8
Defpoints
 62
     0
440
 16777216
100
AcDbPoint
 10
117.7450864048285
 20
145.3872481654248
 30
0.0
  0
ENDBLK
  5
E513
330
E511
100
AcDbEntity
  8
0
100
AcDbBlockEnd
  0
BLOCK
  5
E53A
330
E539
100
AcDbEntity
  8
0
100
AcDbBlockBegin
  2
*D27
 70
     1
 10
0.0
 20
0.0
 30
0.0
  3
*D27
  1

  0
LINE
  5
E9C7
330
E539
100
AcDbEntity
  8
DKM5_DIM_LINE
 62
     1
440
 16777216
370
    -2
100
AcDbLine
 10
305.0476970516901
 20
117.0601684041433
 30
0.0
 11
305.0476970516901
 21
91.68256888099671
 31
0.0
  0
LINE
  5
E9C8
330
E539
100
AcDbEntity
  8
DKM5_DIM_LINE
 62
     1
440
 16777216
370
    -2
100
AcDbLine
 10
370.0476970516901
 20
109.5601684041432
 30
0.0
 11
370.0476970516901
 21
91.68256888099671
 31
0.0
  0
LINE
  5
E9C9
330
E539
100
AcDbEntity
  8
DKM5_DIM_LINE
 62
     1
440
 16777216
370
    -2
100
AcDbLine
 10
308.5476970516901
 20
92.68256888099671
 30
0.0
 11
366.5476970516901
 21
92.68256888099671
 31
0.0
  0
SOLID
  5
E9CA
330
E539
100
AcDbEntity
  8
DKM5_DIM_LINE
 62
     1
440
 16777216
100
AcDbTrace
 10
308.5476970516901
 20
93.26590221433004
 30
0.0
 11
308.5476970516901
 21
92.09923554766339
 31
0.0
 12
305.0476970516901
 22
92.68256888099671
 32
0.0
 13
305.0476970516901
 23
92.68256888099671
 33
0.0
  0
SOLID
  5
E9CB
330
E539
100
AcDbEntity
  8
DKM5_DIM_LINE
 62
     1
440
 16777216
100
AcDbTrace
 10
366.5476970516901
 20
93.26590221433004
 30
0.0
 11
366.5476970516901
 21
92.09923554766339
 31
0.0
 12
370.0476970516901
 22
92.68256888099671
 32
0.0
 13
370.0476970516901
 23
92.68256888099671
 33
0.0
  0
MTEXT
  5
E9CC
330
E539
100
AcDbEntity
  8
DKM5_DIM_LINE
 62
     2
440
 16777216
100
AcDbMText
 10
337.5476970516901
 20
95.63256888099671
 30
0.0
 40
3.5
 41
0.0
 71
     5
 72
     1
  1
65
 73
     1
 44
1.0
  0
POINT
  5
E9CD
330
E539
100
AcDbEntity
  8
Defpoints
 62
     0
440
 16777216
100
AcDbPoint
 10
305.0476970516901
 20
118.6851684041433
 30
0.0
  0
POINT
  5
E9CE
330
E539
100
AcDbEntity
  8
Defpoints
 62
     0
440
 16777216
100
AcDbPoint
 10
370.0476970516901
 20
111.1851684041432
 30
0.0
  0
POINT
  5
E9CF
330
E539
100
AcDbEntity
  8
Defpoints
 62
     0
440
 16777216
100
AcDbPoint
 10
370.0476970516901
 20
92.68256888099671
 30
0.0
  0
ENDBLK
  5
E53B
330
E539
100
AcDbEntity
  8
0
100
AcDbBlockEnd
  0
BLOCK
  5
E55B
330
E55A
100
AcDbEntity
  8
0
100
AcDbBlockBegin
  2
*D28
 70
     1
 10
0.0
 20
0.0
 30
0.0
  3
*D28
  1

  0
LINE
  5
E9D0
330
E55A
100
AcDbEntity
  8
DKM5_DIM_LINE
 62
     1
440
 16777216
370
    -2
100
AcDbLine
 10
340.0476970516901
 20
121.8101684041432
 30
0.0
 11
340.0476970516901
 21
133.6825688809967
 31
0.0
  0
LINE
  5
E9D1
330
E55A
100
AcDbEntity
  8
DKM5_DIM_LINE
 62
     1
440
 16777216
370
    -2
100
AcDbLine
 10
370.0476970516901
 20
121.8101684041432
 30
0.0
 11
370.0476970516901
 21
133.6825688809967
 31
0.0
  0
LINE
  5
E9D2
330
E55A
100
AcDbEntity
  8
DKM5_DIM_LINE
 62
     1
440
 16777216
370
    -2
100
AcDbLine
 10
343.5476970516901
 20
132.6825688809967
 30
0.0
 11
366.5476970516901
 21
132.6825688809967
 31
0.0
  0
SOLID
  5
E9D3
330
E55A
100
AcDbEntity
  8
DKM5_DIM_LINE
 62
     1
440
 16777216
100
AcDbTrace
 10
343.5476970516901
 20
133.26590221433
 30
0.0
 11
343.5476970516901
 21
132.0992355476633
 31
0.0
 12
340.0476970516901
 22
132.6825688809967
 32
0.0
 13
340.0476970516901
 23
132.6825688809967
 33
0.0
  0
SOLID
  5
E9D4
330
E55A
100
AcDbEntity
  8
DKM5_DIM_LINE
 62
     1
440
 16777216
100
AcDbTrace
 10
366.5476970516901
 20
133.26590221433
 30
0.0
 11
366.5476970516901
 21
132.0992355476633
 31
0.0
 12
370.0476970516901
 22
132.6825688809967
 32
0.0
 13
370.0476970516901
 23
132.6825688809967
 33
0.0
  0
MTEXT
  5
E9D5
330
E55A
100
AcDbEntity
  8
DKM5_DIM_LINE
 62
     2
440
 16777216
100
AcDbMText
 10
355.0476970516901
 20
135.6325688809967
 30
0.0
 40
3.5
 41
0.0
 71
     5
 72
     1
  1
30
 73
     1
 44
1.0
  0
POINT
  5
E9D6
330
E55A
100
AcDbEntity
  8
Defpoints
 62
     0
440
 16777216
100
AcDbPoint
 10
340.0476970516901
 20
120.1851684041432
 30
0.0
  0
POINT
  5
E9D7
330
E55A
100
AcDbEntity
  8
Defpoints
 62
     0
440
 16777216
100
AcDbPoint
 10
370.0476970516901
 20
120.1851684041432
 30
0.0
  0
POINT
  5
E9D8
330
E55A
100
AcDbEntity
  8
Defpoints
 62
     0
440
 16777216
100
AcDbPoint
 10
370.0476970516901
 20
132.6825688809967
 30
0.0
  0
ENDBLK
  5
E55C
330
E55A
100
AcDbEntity
  8
0
100
AcDbBlockEnd
  0
BLOCK
  5
E573
330
E572
100
AcDbEntity
  8
0
100
AcDbBlockBegin
  2
*D29
 70
     1
 10
0.0
 20
0.0
 30
0.0
  3
*D29
  1

  0
LINE
  5
E9D9
330
E572
100
AcDbEntity
  8
DKM5_DIM_LINE
 62
     1
440
 16777216
370
    -2
100
AcDbLine
 10
303.4226970516901
 20
217.1851684041433
 30
0.0
 11
284.8241240997271
 21
217.1851684041433
 31
0.0
  0
LINE
  5
E9DA
330
E572
100
AcDbEntity
  8
DKM5_DIM_LINE
 62
     1
440
 16777216
370
    -2
100
AcDbLine
 10
303.4226970516901
 20
137.1851684041432
 30
0.0
 11
284.8241240997271
 21
137.1851684041432
 31
0.0
  0
LINE
  5
E9DB
330
E572
100
AcDbEntity
  8
DKM5_DIM_LINE
 62
     1
440
 16777216
370
    -2
100
AcDbLine
 10
285.8241240997271
 20
213.6851684041433
 30
0.0
 11
285.8241240997271
 21
140.6851684041432
 31
0.0
  0
SOLID
  5
E9DC
330
E572
100
AcDbEntity
  8
DKM5_DIM_LINE
 62
     1
440
 16777216
100
AcDbTrace
 10
285.2407907663938
 20
213.6851684041433
 30
0.0
 11
286.4074574330604
 21
213.6851684041433
 31
0.0
 12
285.8241240997271
 22
217.1851684041433
 32
0.0
 13
285.8241240997271
 23
217.1851684041433
 33
0.0
  0
SOLID
  5
E9DD
330
E572
100
AcDbEntity
  8
DKM5_DIM_LINE
 62
     1
440
 16777216
100
AcDbTrace
 10
285.2407907663938
 20
140.6851684041432
 30
0.0
 11
286.4074574330604
 21
140.6851684041432
 31
0.0
 12
285.8241240997271
 22
137.1851684041432
 32
0.0
 13
285.8241240997271
 23
137.1851684041432
 33
0.0
  0
MTEXT
  5
E9DE
330
E572
100
AcDbEntity
  8
DKM5_DIM_LINE
 62
     2
440
 16777216
100
AcDbMText
 10
282.874124099727
 20
177.1851684041433
 30
0.0
 40
3.5
 41
0.0
 71
     5
 72
     1
  1
%%C80
 11
0.0000000000000001
 21
1.0
 31
0.0
 73
     1
 44
1.0
  0
POINT
  5
E9DF
330
E572
100
AcDbEntity
  8
Defpoints
 62
     0
440
 16777216
100
AcDbPoint
 10
305.0476970516901
 20
217.1851684041433
 30
0.0
  0
POINT
  5
E9E0
330
E572
100
AcDbEntity
  8
Defpoints
 62
     0
440
 16777216
100
AcDbPoint
 10
305.0476970516901
 20
137.1851684041432
 30
0.0
  0
POINT
  5
E9E1
330
E572
100
AcDbEntity
  8
Defpoints
 62
     0
440
 16777216
100
AcDbPoint
 10
285.8241240997271
 20
137.1851684041432
 30
0.0
  0
ENDBLK
  5
E574
330
E572
100
AcDbEntity
  8
0
100
AcDbBlockEnd
  0
BLOCK
  5
E58B
330
E58A
100
AcDbEntity
  8
0
100
AcDbBlockBegin
  2
*D30
 70
     1
 10
0.0
 20
0.0
 30
0.0
  3
*D30
  1

  0
LINE
  5
E9E2
330
E58A
100
AcDbEntity
  8
DKM5_DIM_LINE
 62
     1
440
 16777216
370
    -2
100
AcDbLine
 10
309.4226970516901
 20
218.8351684041433
 30
0.0
 11
274.8241240997271
 21
218.8351684041433
 31
0.0
  0
LINE
  5
E9E3
330
E58A
100
AcDbEntity
  8
DKM5_DIM_LINE
 62
     1
440
 16777216
370
    -2
100
AcDbLine
 10
309.4226970516901
 20
135.5351684041433
 30
0.0
 11
274.8241240997271
 21
135.5351684041433
 31
0.0
  0
LINE
  5
E9E4
330
E58A
100
AcDbEntity
  8
DKM5_DIM_LINE
 62
     1
440
 16777216
370
    -2
100
AcDbLine
 10
275.8241240997271
 20
215.3351684041433
 30
0.0
 11
275.8241240997271
 21
139.0351684041433
 31
0.0
  0
SOLID
  5
E9E5
330
E58A
100
AcDbEntity
  8
DKM5_DIM_LINE
 62
     1
440
 16777216
100
AcDbTrace
 10
275.2407907663938
 20
215.3351684041433
 30
0.0
 11
276.4074574330604
 21
215.3351684041433
 31
0.0
 12
275.8241240997271
 22
218.8351684041433
 32
0.0
 13
275.8241240997271
 23
218.8351684041433
 33
0.0
  0
SOLID
  5
E9E6
330
E58A
100
AcDbEntity
  8
DKM5_DIM_LINE
 62
     1
440
 16777216
100
AcDbTrace
 10
275.2407907663938
 20
139.0351684041433
 30
0.0
 11
276.4074574330604
 21
139.0351684041433
 31
0.0
 12
275.8241240997271
 22
135.5351684041433
 32
0.0
 13
275.8241240997271
 23
135.5351684041433
 33
0.0
  0
MTEXT
  5
E9E7
330
E58A
100
AcDbEntity
  8
DKM5_DIM_LINE
 62
     2
440
 16777216
100
AcDbMText
 10
271.7657907663937
 20
177.1851684041433
 30
0.0
 40
3.5
 41
0.0
 71
     5
 72
     1
  1
%%C83.3{\H0.7x;\S+0.2^ +0;}
 11
0.0000000000000001
 21
1.0
 31
0.0
 73
     1
 44
1.0
  0
POINT
  5
E9E8
330
E58A
100
AcDbEntity
  8
Defpoints
 62
     0
440
 16777216
100
AcDbPoint
 10
311.0476970516901
 20
218.8351684041433
 30
0.0
  0
POINT
  5
E9E9
330
E58A
100
AcDbEntity
  8
Defpoints
 62
     0
440
 16777216
100
AcDbPoint
 10
311.0476970516901
 20
135.5351684041433
 30
0.0
  0
POINT
  5
E9EA
330
E58A
100
AcDbEntity
  8
Defpoints
 62
     0
440
 16777216
100
AcDbPoint
 10
275.8241240997271
 20
135.5351684041433
 30
0.0
  0
ENDBLK
  5
E58C
330
E58A
100
AcDbEntity
  8
0
100
AcDbBlockEnd
  0
BLOCK
  5
E5B5
330
E5B4
100
AcDbEntity
  8
0
100
AcDbBlockBegin
  2
*D31
 70
     1
 10
0.0
 20
0.0
 30
0.0
  3
*D31
  1

  0
LINE
  5
E9EB
330
E5B4
100
AcDbEntity
  8
DKM5_DIM_LINE
 62
     1
440
 16777216
370
    -2
100
AcDbLine
 10
311.0476970516901
 20
220.4601684041433
 30
0.0
 11
311.0476970516901
 21
233.6825688809967
 31
0.0
  0
LINE
  5
E9EC
330
E5B4
100
AcDbEntity
  8
DKM5_DIM_LINE
 62
     1
440
 16777216
370
    -2
100
AcDbLine
 10
314.0476970516901
 20
224.8101684041433
 30
0.0
 11
314.0476970516901
 21
233.6825688809967
 31
0.0
  0
LINE
  5
E9ED
330
E5B4
100
AcDbEntity
  8
DKM5_DIM_LINE
 62
     1
440
 16777216
370
    -2
100
AcDbLine
 10
307.5476970516901
 20
232.6825688809967
 30
0.0
 11
304.0476970516901
 21
232.6825688809967
 31
0.0
  0
LINE
  5
E9EE
330
E5B4
100
AcDbEntity
  8
DKM5_DIM_LINE
 62
     1
440
 16777216
370
    -2
100
AcDbLine
 10
317.5476970516901
 20
232.6825688809967
 30
0.0
 11
325.7810303850234
 21
232.6825688809967
 31
0.0
  0
LINE
  5
E9EF
330
E5B4
100
AcDbEntity
  8
DKM5_DIM_LINE
 62
     1
440
 16777216
370
    -2
100
AcDbLine
 10
311.0476970516901
 20
232.6825688809967
 30
0.0
 11
314.0476970516901
 21
232.6825688809967
 31
0.0
  0
SOLID
  5
E9F0
330
E5B4
100
AcDbEntity
  8
DKM5_DIM_LINE
 62
     1
440
 16777216
100
AcDbTrace
 10
307.5476970516901
 20
233.2659022143301
 30
0.0
 11
307.5476970516901
 21
232.0992355476634
 31
0.0
 12
311.0476970516901
 22
232.6825688809967
 32
0.0
 13
311.0476970516901
 23
232.6825688809967
 33
0.0
  0
SOLID
  5
E9F1
330
E5B4
100
AcDbEntity
  8
DKM5_DIM_LINE
 62
     1
440
 16777216
100
AcDbTrace
 10
317.5476970516901
 20
233.2659022143301
 30
0.0
 11
317.5476970516901
 21
232.0992355476634
 31
0.0
 12
314.0476970516901
 22
232.6825688809967
 32
0.0
 13
314.0476970516901
 23
232.6825688809967
 33
0.0
  0
MTEXT
  5
E9F2
330
E5B4
100
AcDbEntity
  8
DKM5_DIM_LINE
 62
     2
440
 16777216
100
AcDbMText
 10
323.4143637183568
 20
235.6325688809967
 30
0.0
 40
3.5
 41
0.0
 71
     5
 72
     1
  1
3
 73
     1
 44
1.0
  0
POINT
  5
E9F3
330
E5B4
100
AcDbEntity
  8
Defpoints
 62
     0
440
 16777216
100
AcDbPoint
 10
311.0476970516901
 20
218.8351684041433
 30
0.0
  0
POINT
  5
E9F4
330
E5B4
100
AcDbEntity
  8
Defpoints
 62
     0
440
 16777216
100
AcDbPoint
 10
314.0476970516901
 20
223.1851684041433
 30
0.0
  0
POINT
  5
E9F5
330
E5B4
100
AcDbEntity
  8
Defpoints
 62
     0
440
 16777216
100
AcDbPoint
 10
314.0476970516901
 20
232.6825688809967
 30
0.0
  0
ENDBLK
  5
E5B6
330
E5B4
100
AcDbEntity
  8
0
100
AcDbBlockEnd
  0
BLOCK
  5
E5D1
330
E5D0
100
AcDbEntity
  8
0
100
AcDbBlockBegin
  2
*D32
 70
     1
 10
0.0
 20
0.0
 30
0.0
  3
*D32
  1

  0
LINE
  5
E9F6
330
E5D0
100
AcDbEntity
  8
DKM5_DIM_LINE
 62
     1
440
 16777216
370
    -2
100
AcDbLine
 10
305.0476970516901
 20
224.8101684041433
 30
0.0
 11
305.0476970516901
 21
243.6825688809967
 31
0.0
  0
LINE
  5
E9F7
330
E5D0
100
AcDbEntity
  8
DKM5_DIM_LINE
 62
     1
440
 16777216
370
    -2
100
AcDbLine
 10
314.0476970516901
 20
224.8101684041433
 30
0.0
 11
314.0476970516901
 21
243.6825688809967
 31
0.0
  0
LINE
  5
E9F8
330
E5D0
100
AcDbEntity
  8
DKM5_DIM_LINE
 62
     1
440
 16777216
370
    -2
100
AcDbLine
 10
301.5476970516901
 20
242.6825688809967
 30
0.0
 11
298.0476970516901
 21
242.6825688809967
 31
0.0
  0
LINE
  5
E9F9
330
E5D0
100
AcDbEntity
  8
DKM5_DIM_LINE
 62
     1
440
 16777216
370
    -2
100
AcDbLine
 10
317.5476970516901
 20
242.6825688809967
 30
0.0
 11
321.0476970516901
 21
242.6825688809967
 31
0.0
  0
LINE
  5
E9FA
330
E5D0
100
AcDbEntity
  8
DKM5_DIM_LINE
 62
     1
440
 16777216
370
    -2
100
AcDbLine
 10
305.0476970516901
 20
242.6825688809967
 30
0.0
 11
314.0476970516901
 21
242.6825688809967
 31
0.0
  0
SOLID
  5
E9FB
330
E5D0
100
AcDbEntity
  8
DKM5_DIM_LINE
 62
     1
440
 16777216
100
AcDbTrace
 10
301.5476970516901
 20
243.2659022143301
 30
0.0
 11
301.5476970516901
 21
242.0992355476634
 31
0.0
 12
305.0476970516901
 22
242.6825688809967
 32
0.0
 13
305.0476970516901
 23
242.6825688809967
 33
0.0
  0
SOLID
  5
E9FC
330
E5D0
100
AcDbEntity
  8
DKM5_DIM_LINE
 62
     1
440
 16777216
100
AcDbTrace
 10
317.5476970516901
 20
243.2659022143301
 30
0.0
 11
317.5476970516901
 21
242.0992355476634
 31
0.0
 12
314.0476970516901
 22
242.6825688809967
 32
0.0
 13
314.0476970516901
 23
242.6825688809967
 33
0.0
  0
MTEXT
  5
E9FD
330
E5D0
100
AcDbEntity
  8
DKM5_DIM_LINE
 62
     2
440
 16777216
100
AcDbMText
 10
309.5476970516901
 20
245.6325688809967
 30
0.0
 40
3.5
 41
0.0
 71
     5
 72
     1
  1
9
 73
     1
 44
1.0
  0
POINT
  5
E9FE
330
E5D0
100
AcDbEntity
  8
Defpoints
 62
     0
440
 16777216
100
AcDbPoint
 10
305.0476970516901
 20
223.1851684041433
 30
0.0
  0
POINT
  5
E9FF
330
E5D0
100
AcDbEntity
  8
Defpoints
 62
     0
440
 16777216
100
AcDbPoint
 10
314.0476970516901
 20
223.1851684041433
 30
0.0
  0
POINT
  5
EA00
330
E5D0
100
AcDbEntity
  8
Defpoints
 62
     0
440
 16777216
100
AcDbPoint
 10
314.0476970516901
 20
242.6825688809967
 30
0.0
  0
ENDBLK
  5
E5D2
330
E5D0
100
AcDbEntity
  8
0
100
AcDbBlockEnd
  0
BLOCK
  5
E5ED
330
E5EC
100
AcDbEntity
  8
0
100
AcDbBlockBegin
  2
*D33
 70
     1
 10
0.0
 20
0.0
 30
0.0
  3
*D33
  1

  0
LINE
  5
EA4D
330
E5EC
100
AcDbEntity
  8
DKM5_DIM_LINE
 62
     1
440
 16777216
370
    -2
100
AcDbLine
 10
133.8898584723957
 20
336.0024170064544
 30
0.0
 11
133.8898584723957
 21
361.3848586001954
 31
0.0
  0
LINE
  5
EA4E
330
E5EC
100
AcDbEntity
  8
DKM5_DIM_LINE
 62
     1
440
 16777216
370
    -2
100
AcDbLine
 10
183.8898584723957
 20
336.0024170064544
 30
0.0
 11
183.8898584723957
 21
361.3848586001954
 31
0.0
  0
LINE
  5
EA4F
330
E5EC
100
AcDbEntity
  8
DKM5_DIM_LINE
 62
     1
440
 16777216
370
    -2
100
AcDbLine
 10
137.3898584723957
 20
360.3848586001954
 30
0.0
 11
180.3898584723957
 21
360.3848586001954
 31
0.0
  0
SOLID
  5
EA50
330
E5EC
100
AcDbEntity
  8
DKM5_DIM_LINE
 62
     1
440
 16777216
100
AcDbTrace
 10
137.3898584723957
 20
360.9681919335287
 30
0.0
 11
137.3898584723957
 21
359.8015252668621
 31
0.0
 12
133.8898584723957
 22
360.3848586001954
 32
0.0
 13
133.8898584723957
 23
360.3848586001954
 33
0.0
  0
SOLID
  5
EA51
330
E5EC
100
AcDbEntity
  8
DKM5_DIM_LINE
 62
     1
440
 16777216
100
AcDbTrace
 10
180.3898584723957
 20
360.9681919335287
 30
0.0
 11
180.3898584723957
 21
359.8015252668621
 31
0.0
 12
183.8898584723957
 22
360.3848586001954
 32
0.0
 13
183.8898584723957
 23
360.3848586001954
 33
0.0
  0
MTEXT
  5
EA52
330
E5EC
100
AcDbEntity
  8
DKM5_DIM_LINE
 62
     2
440
 16777216
100
AcDbMText
 10
158.8898584723957
 20
363.3348586001954
 30
0.0
 40
3.5
 41
0.0
 71
     5
 72
     1
  1
50
 73
     1
 44
1.0
  0
POINT
  5
EA53
330
E5EC
100
AcDbEntity
  8
Defpoints
 62
     0
440
 16777216
100
AcDbPoint
 10
133.8898584723957
 20
334.3774170064544
 30
0.0
  0
POINT
  5
EA54
330
E5EC
100
AcDbEntity
  8
Defpoints
 62
     0
440
 16777216
100
AcDbPoint
 10
183.8898584723957
 20
334.3774170064544
 30
0.0
  0
POINT
  5
EA55
330
E5EC
100
AcDbEntity
  8
Defpoints
 62
     0
440
 16777216
100
AcDbPoint
 10
183.8898584723957
 20
360.3848586001954
 30
0.0
  0
ENDBLK
  5
E5EE
330
E5EC
100
AcDbEntity
  8
0
100
AcDbBlockEnd
  0
BLOCK
  5
E605
330
E604
100
AcDbEntity
  8
0
100
AcDbBlockBegin
  2
*D34
 70
     1
 10
0.0
 20
0.0
 30
0.0
  3
*D34
  1

  0
LINE
  5
EA0A
330
E604
100
AcDbEntity
  8
DKM5_DIM_LINE
 62
     1
440
 16777216
370
    -2
100
AcDbLine
 10
94.88985847239575
 20
348.2274170064544
 30
0.0
 11
94.88985847239575
 21
371.3848586001954
 31
0.0
  0
LINE
  5
EA0B
330
E604
100
AcDbEntity
  8
DKM5_DIM_LINE
 62
     1
440
 16777216
370
    -2
100
AcDbLine
 10
222.8898584723958
 20
348.2274170064544
 30
0.0
 11
222.8898584723958
 21
371.3848586001954
 31
0.0
  0
LINE
  5
EA0C
330
E604
100
AcDbEntity
  8
DKM5_DIM_LINE
 62
     1
440
 16777216
370
    -2
100
AcDbLine
 10
98.38985847239577
 20
370.3848586001954
 30
0.0
 11
219.3898584723958
 21
370.3848586001954
 31
0.0
  0
SOLID
  5
EA0D
330
E604
100
AcDbEntity
  8
DKM5_DIM_LINE
 62
     1
440
 16777216
100
AcDbTrace
 10
98.38985847239577
 20
370.9681919335287
 30
0.0
 11
98.38985847239577
 21
369.8015252668621
 31
0.0
 12
94.88985847239575
 22
370.3848586001954
 32
0.0
 13
94.88985847239575
 23
370.3848586001954
 33
0.0
  0
SOLID
  5
EA0E
330
E604
100
AcDbEntity
  8
DKM5_DIM_LINE
 62
     1
440
 16777216
100
AcDbTrace
 10
219.3898584723958
 20
370.9681919335287
 30
0.0
 11
219.3898584723958
 21
369.8015252668621
 31
0.0
 12
222.8898584723958
 22
370.3848586001954
 32
0.0
 13
222.8898584723958
 23
370.3848586001954
 33
0.0
  0
MTEXT
  5
EA0F
330
E604
100
AcDbEntity
  8
DKM5_DIM_LINE
 62
     2
440
 16777216
100
AcDbMText
 10
158.8898584723957
 20
373.3348586001954
 30
0.0
 40
3.5
 41
0.0
 71
     5
 72
     1
  1
128
 73
     1
 44
1.0
  0
POINT
  5
EA10
330
E604
100
AcDbEntity
  8
Defpoints
 62
     0
440
 16777216
100
AcDbPoint
 10
94.88985847239575
 20
346.6024170064545
 30
0.0
  0
POINT
  5
EA11
330
E604
100
AcDbEntity
  8
Defpoints
 62
     0
440
 16777216
100
AcDbPoint
 10
222.8898584723958
 20
346.6024170064545
 30
0.0
  0
POINT
  5
EA12
330
E604
100
AcDbEntity
  8
Defpoints
 62
     0
440
 16777216
100
AcDbPoint
 10
222.8898584723958
 20
370.3848586001954
 30
0.0
  0
ENDBLK
  5
E606
330
E604
100
AcDbEntity
  8
0
100
AcDbBlockEnd
  0
BLOCK
  5
E61D
330
E61C
100
AcDbEntity
  8
0
100
AcDbBlockBegin
  2
*D35
 70
     1
 10
0.0
 20
0.0
 30
0.0
  3
*D35
  1

  0
LINE
  5
EA13
330
E61C
100
AcDbEntity
  8
DKM5_DIM_LINE
 62
     1
440
 16777216
370
    -2
100
AcDbLine
 10
206.5148584723957
 20
279.3774170064545
 30
0.0
 11
254.6978620877384
 21
279.3774170064545
 31
0.0
  0
LINE
  5
EA14
330
E61C
100
AcDbEntity
  8
DKM5_DIM_LINE
 62
     1
440
 16777216
370
    -2
100
AcDbLine
 10
231.6398584723956
 20
296.3774170064545
 30
0.0
 11
254.6978620877384
 21
296.3774170064545
 31
0.0
  0
LINE
  5
EA15
330
E61C
100
AcDbEntity
  8
DKM5_DIM_LINE
 62
     1
440
 16777216
370
    -2
100
AcDbLine
 10
253.6978620877384
 20
282.8774170064545
 30
0.0
 11
253.6978620877384
 21
292.8774170064545
 31
0.0
  0
SOLID
  5
EA16
330
E61C
100
AcDbEntity
  8
DKM5_DIM_LINE
 62
     1
440
 16777216
100
AcDbTrace
 10
253.114528754405
 20
282.8774170064545
 30
0.0
 11
254.2811954210717
 21
282.8774170064545
 31
0.0
 12
253.6978620877384
 22
279.3774170064545
 32
0.0
 13
253.6978620877384
 23
279.3774170064545
 33
0.0
  0
SOLID
  5
EA17
330
E61C
100
AcDbEntity
  8
DKM5_DIM_LINE
 62
     1
440
 16777216
100
AcDbTrace
 10
253.114528754405
 20
292.8774170064545
 30
0.0
 11
254.2811954210717
 21
292.8774170064545
 31
0.0
 12
253.6978620877384
 22
296.3774170064545
 32
0.0
 13
253.6978620877384
 23
296.3774170064545
 33
0.0
  0
MTEXT
  5
EA18
330
E61C
100
AcDbEntity
  8
DKM5_DIM_LINE
 62
     2
440
 16777216
100
AcDbMText
 10
250.7478620877384
 20
287.8774170064545
 30
0.0
 40
3.5
 41
0.0
 71
     5
 72
     1
  1
17
 11
0.0000000000000001
 21
1.0
 31
0.0
 73
     1
 44
1.0
  0
POINT
  5
EA19
330
E61C
100
AcDbEntity
  8
Defpoints
 62
     0
440
 16777216
100
AcDbPoint
 10
204.8898584723957
 20
279.3774170064545
 30
0.0
  0
POINT
  5
EA1A
330
E61C
100
AcDbEntity
  8
Defpoints
 62
     0
440
 16777216
100
AcDbPoint
 10
230.0148584723956
 20
296.3774170064545
 30
0.0
  0
POINT
  5
EA1B
330
E61C
100
AcDbEntity
  8
Defpoints
 62
     0
440
 16777216
100
AcDbPoint
 10
253.6978620877384
 20
296.3774170064545
 30
0.0
  0
ENDBLK
  5
E61E
330
E61C
100
AcDbEntity
  8
0
100
AcDbBlockEnd
  0
BLOCK
  5
E635
330
E634
100
AcDbEntity
  8
0
100
AcDbBlockBegin
  2
*D36
 70
     1
 10
0.0
 20
0.0
 30
0.0
  3
*D36
  1

  0
LINE
  5
EA1C
330
E634
100
AcDbEntity
  8
DKM5_DIM_LINE
 62
     1
440
 16777216
370
    -2
100
AcDbLine
 10
231.6398584723956
 20
296.3774170064545
 30
0.0
 11
254.6978620877385
 21
296.3774170064545
 31
0.0
  0
LINE
  5
EA1D
330
E634
100
AcDbEntity
  8
DKM5_DIM_LINE
 62
     1
440
 16777216
370
    -2
100
AcDbLine
 10
231.6398584723956
 20
336.3774170064544
 30
0.0
 11
254.6978620877385
 21
336.3774170064544
 31
0.0
  0
LINE
  5
EA1E
330
E634
100
AcDbEntity
  8
DKM5_DIM_LINE
 62
     1
440
 16777216
370
    -2
100
AcDbLine
 10
253.6978620877385
 20
299.8774170064545
 30
0.0
 11
253.6978620877385
 21
332.8774170064544
 31
0.0
  0
SOLID
  5
EA1F
330
E634
100
AcDbEntity
  8
DKM5_DIM_LINE
 62
     1
440
 16777216
100
AcDbTrace
 10
253.1145287544051
 20
299.8774170064545
 30
0.0
 11
254.2811954210718
 21
299.8774170064545
 31
0.0
 12
253.6978620877385
 22
296.3774170064545
 32
0.0
 13
253.6978620877385
 23
296.3774170064545
 33
0.0
  0
SOLID
  5
EA20
330
E634
100
AcDbEntity
  8
DKM5_DIM_LINE
 62
     1
440
 16777216
100
AcDbTrace
 10
253.1145287544052
 20
332.8774170064544
 30
0.0
 11
254.2811954210718
 21
332.8774170064544
 31
0.0
 12
253.6978620877385
 22
336.3774170064544
 32
0.0
 13
253.6978620877385
 23
336.3774170064544
 33
0.0
  0
MTEXT
  5
EA21
330
E634
100
AcDbEntity
  8
DKM5_DIM_LINE
 62
     2
440
 16777216
100
AcDbMText
 10
250.7478620877384
 20
316.3774170064545
 30
0.0
 40
3.5
 41
0.0
 71
     5
 72
     1
  1
40
 11
0.0000000000000001
 21
1.0
 31
0.0
 73
     1
 44
1.0
  0
POINT
  5
EA22
330
E634
100
AcDbEntity
  8
Defpoints
 62
     0
440
 16777216
100
AcDbPoint
 10
230.0148584723956
 20
296.3774170064545
 30
0.0
  0
POINT
  5
EA23
330
E634
100
AcDbEntity
  8
Defpoints
 62
     0
440
 16777216
100
AcDbPoint
 10
230.0148584723956
 20
336.3774170064544
 30
0.0
  0
POINT
  5
EA24
330
E634
100
AcDbEntity
  8
Defpoints
 62
     0
440
 16777216
100
AcDbPoint
 10
253.6978620877385
 20
336.3774170064544
 30
0.0
  0
ENDBLK
  5
E636
330
E634
100
AcDbEntity
  8
0
100
AcDbBlockEnd
  0
BLOCK
  5
E668
330
E667
100
AcDbEntity
  8
0
100
AcDbBlockBegin
  2
*D37
 70
     1
 10
0.0
 20
0.0
 30
0.0
  3
*D37
  1

  0
LINE
  5
EA25
330
E667
100
AcDbEntity
  8
DKM5_DIM_LINE
 62
     1
440
 16777216
370
    -2
100
AcDbLine
 10
123.5148584723956
 20
344.3774170064545
 30
0.0
 11
149.8924931676428
 21
344.3774170064545
 31
0.0
  0
LINE
  5
EA26
330
E667
100
AcDbEntity
  8
DKM5_DIM_LINE
 62
     1
440
 16777216
370
    -2
100
AcDbLine
 10
143.5148584723956
 20
301.3774170064544
 30
0.0
 11
149.8924931676428
 21
301.3774170064544
 31
0.0
  0
LINE
  5
EA27
330
E667
100
AcDbEntity
  8
DKM5_DIM_LINE
 62
     1
440
 16777216
370
    -2
100
AcDbLine
 10
148.8924931676428
 20
340.8774170064544
 30
0.0
 11
148.8924931676428
 21
304.8774170064544
 31
0.0
  0
SOLID
  5
EA28
330
E667
100
AcDbEntity
  8
DKM5_DIM_LINE
 62
     1
440
 16777216
100
AcDbTrace
 10
148.3091598343095
 20
340.8774170064544
 30
0.0
 11
149.4758265009761
 21
340.8774170064544
 31
0.0
 12
148.8924931676428
 22
344.3774170064545
 32
0.0
 13
148.8924931676428
 23
344.3774170064545
 33
0.0
  0
SOLID
  5
EA29
330
E667
100
AcDbEntity
  8
DKM5_DIM_LINE
 62
     1
440
 16777216
100
AcDbTrace
 10
148.3091598343094
 20
304.8774170064544
 30
0.0
 11
149.4758265009761
 21
304.8774170064544
 31
0.0
 12
148.8924931676428
 22
301.3774170064544
 32
0.0
 13
148.8924931676428
 23
301.3774170064544
 33
0.0
  0
MTEXT
  5
EA2A
330
E667
100
AcDbEntity
  8
DKM5_DIM_LINE
 62
     2
440
 16777216
100
AcDbMText
 10
145.9424931676427
 20
322.8774170064545
 30
0.0
 40
3.5
 41
0.0
 71
     5
 72
     1
  1
43
 11
0.0000000000000001
 21
1.0
 31
0.0
 73
     1
 44
1.0
  0
POINT
  5
EA2B
330
E667
100
AcDbEntity
  8
Defpoints
 62
     0
440
 16777216
100
AcDbPoint
 10
121.8898584723956
 20
344.3774170064545
 30
0.0
  0
POINT
  5
EA2C
330
E667
100
AcDbEntity
  8
Defpoints
 62
     0
440
 16777216
100
AcDbPoint
 10
141.8898584723956
 20
301.3774170064544
 30
0.0
  0
POINT
  5
EA2D
330
E667
100
AcDbEntity
  8
Defpoints
 62
     0
440
 16777216
100
AcDbPoint
 10
148.8924931676428
 20
301.3774170064544
 30
0.0
  0
ENDBLK
  5
E669
330
E667
100
AcDbEntity
  8
0
100
AcDbBlockEnd
  0
BLOCK
  5
E680
330
E67F
100
AcDbEntity
  8
0
100
AcDbBlockBegin
  2
*D38
 70
     1
 10
0.0
 20
0.0
 30
0.0
  3
*D38
  1

  0
LINE
  5
EA2E
330
E67F
100
AcDbEntity
  8
DKM5_DIM_LINE
 62
     1
440
 16777216
370
    -2
100
AcDbLine
 10
91.76485847239565
 20
299.6274170064545
 30
0.0
 11
72.69786208773843
 21
299.6274170064545
 31
0.0
  0
LINE
  5
EA2F
330
E67F
100
AcDbEntity
  8
DKM5_DIM_LINE
 62
     1
440
 16777216
370
    -2
100
AcDbLine
 10
91.76485847239565
 20
293.1274170064544
 30
0.0
 11
72.69786208773843
 21
293.1274170064544
 31
0.0
  0
LINE
  5
EA30
330
E67F
100
AcDbEntity
  8
DKM5_DIM_LINE
 62
     1
440
 16777216
370
    -2
100
AcDbLine
 10
73.69786208773843
 20
289.6274170064544
 30
0.0
 11
73.69786208773842
 21
286.1274170064545
 31
0.0
  0
LINE
  5
EA31
330
E67F
100
AcDbEntity
  8
DKM5_DIM_LINE
 62
     1
440
 16777216
370
    -2
100
AcDbLine
 10
73.69786208773843
 20
303.1274170064545
 30
0.0
 11
73.69786208773843
 21
324.0274170064545
 31
0.0
  0
LINE
  5
EA32
330
E67F
100
AcDbEntity
  8
DKM5_DIM_LINE
 62
     1
440
 16777216
370
    -2
100
AcDbLine
 10
73.69786208773843
 20
293.1274170064544
 30
0.0
 11
73.69786208773843
 21
299.6274170064545
 31
0.0
  0
SOLID
  5
EA33
330
E67F
100
AcDbEntity
  8
DKM5_DIM_LINE
 62
     1
440
 16777216
100
AcDbTrace
 10
73.1145287544051
 20
289.6274170064544
 30
0.0
 11
74.28119542107175
 21
289.6274170064544
 31
0.0
 12
73.69786208773843
 22
293.1274170064544
 32
0.0
 13
73.69786208773843
 23
293.1274170064544
 33
0.0
  0
SOLID
  5
EA34
330
E67F
100
AcDbEntity
  8
DKM5_DIM_LINE
 62
     1
440
 16777216
100
AcDbTrace
 10
73.1145287544051
 20
303.1274170064545
 30
0.0
 11
74.28119542107175
 21
303.1274170064545
 31
0.0
 12
73.69786208773843
 22
299.6274170064545
 32
0.0
 13
73.69786208773843
 23
299.6274170064545
 33
0.0
  0
MTEXT
  5
EA35
330
E67F
100
AcDbEntity
  8
DKM5_DIM_LINE
 62
     2
440
 16777216
100
AcDbMText
 10
70.74786208773836
 20
315.3274170064545
 30
0.0
 40
3.5
 41
0.0
 71
     5
 72
     1
  1
4-6.5
 11
0.0000000000000001
 21
1.0
 31
0.0
 73
     1
 44
1.0
  0
POINT
  5
EA36
330
E67F
100
AcDbEntity
  8
Defpoints
 62
     0
440
 16777216
100
AcDbPoint
 10
93.38985847239564
 20
299.6274170064545
 30
0.0
  0
POINT
  5
EA37
330
E67F
100
AcDbEntity
  8
Defpoints
 62
     0
440
 16777216
100
AcDbPoint
 10
93.38985847239564
 20
293.1274170064544
 30
0.0
  0
POINT
  5
EA38
330
E67F
100
AcDbEntity
  8
Defpoints
 62
     0
440
 16777216
100
AcDbPoint
 10
73.69786208773843
 20
293.1274170064544
 30
0.0
  0
ENDBLK
  5
E681
330
E67F
100
AcDbEntity
  8
0
100
AcDbBlockEnd
  0
BLOCK
  5
E6A7
330
E6A6
100
AcDbEntity
  8
0
100
AcDbBlockBegin
  2
*D39
 70
     1
 10
0.0
 20
0.0
 30
0.0
  3
*D39
  1

  0
LINE
  5
EA43
330
E6A6
100
AcDbEntity
  8
DKM5_DIM_LINE
 62
     1
440
 16777216
370
    -2
100
AcDbLine
 10
90.13985847239561
 20
294.7524170064545
 30
0.0
 11
90.13985847239561
 21
268.632064583664
 31
0.0
  0
LINE
  5
EA44
330
E6A6
100
AcDbEntity
  8
DKM5_DIM_LINE
 62
     1
440
 16777216
370
    -2
100
AcDbLine
 10
99.63985847239563
 20
294.7524170064545
 30
0.0
 11
99.63985847239563
 21
268.632064583664
 31
0.0
  0
LINE
  5
EA45
330
E6A6
100
AcDbEntity
  8
DKM5_DIM_LINE
 62
     1
440
 16777216
370
    -2
100
AcDbLine
 10
96.13985847239561
 20
269.632064583664
 30
0.0
 11
93.63985847239561
 21
269.632064583664
 31
0.0
  0
LINE
  5
EA46
330
E6A6
100
AcDbEntity
  8
DKM5_DIM_LINE
 62
     1
440
 16777216
370
    -2
100
AcDbLine
 10
90.13985847239561
 20
269.632064583664
 30
0.0
 11
69.23985847239556
 21
269.632064583664
 31
0.0
  0
SOLID
  5
EA47
330
E6A6
100
AcDbEntity
  8
DKM5_DIM_LINE
 62
     1
440
 16777216
100
AcDbTrace
 10
96.13985847239561
 20
270.2153979169973
 30
0.0
 11
96.13985847239561
 21
269.0487312503307
 31
0.0
 12
99.63985847239563
 22
269.632064583664
 32
0.0
 13
99.63985847239563
 23
269.632064583664
 33
0.0
  0
SOLID
  5
EA48
330
E6A6
100
AcDbEntity
  8
DKM5_DIM_LINE
 62
     1
440
 16777216
100
AcDbTrace
 10
93.63985847239561
 20
270.2153979169973
 30
0.0
 11
93.63985847239561
 21
269.0487312503307
 31
0.0
 12
90.13985847239561
 22
269.632064583664
 32
0.0
 13
90.13985847239561
 23
269.632064583664
 33
0.0
  0
MTEXT
  5
EA49
330
E6A6
100
AcDbEntity
  8
DKM5_DIM_LINE
 62
     2
440
 16777216
100
AcDbMText
 10
77.93985847239557
 20
272.582064583664
 30
0.0
 40
3.5
 41
0.0
 71
     5
 72
     1
  1
4-9.5
 73
     1
 44
1.0
  0
POINT
  5
EA4A
330
E6A6
100
AcDbEntity
  8
Defpoints
 62
     0
440
 16777216
100
AcDbPoint
 10
90.13985847239561
 20
296.3774170064545
 30
0.0
  0
POINT
  5
EA4B
330
E6A6
100
AcDbEntity
  8
Defpoints
 62
     0
440
 16777216
100
AcDbPoint
 10
99.63985847239563
 20
296.3774170064545
 30
0.0
  0
POINT
  5
EA4C
330
E6A6
100
AcDbEntity
  8
Defpoints
 62
     0
440
 16777216
100
AcDbPoint
 10
99.63985847239563
 20
269.632064583664
 30
0.0
  0
ENDBLK
  5
E6A8
330
E6A6
100
AcDbEntity
  8
0
100
AcDbBlockEnd
  0
ENDSEC
  0
SECTION
  2
ENTITIES
  0
MTEXT
  5
7611
330
1F
100
AcDbEntity
  8
DKM5_DIM_LINE
 62
     2
100
AcDbMText
 10
458.0
 20
101.9551463948211
 30
0.0
 40
2.5
 41
0.0
 71
     3
 72
     5
  1

 73
     1
 44
1.0
  0
MTEXT
  5
7A62
330
1F
100
AcDbEntity
  8
DKM5_DIM_LINE
 62
     2
100
AcDbMText
 10
652.3726664753813
 20
82.5
 30
0.0
 40
2.5
 41
0.0
 71
     1
 72
     5
  1

 73
     1
 44
1.0
  0
LWPOLYLINE
  5
BD27
330
1F
100
AcDbEntity
  8
DKM9_BORDERLINE
100
AcDbPolyline
 90
        4
 70
     1
 43
0.0
 10
-60.14590821595844
 20
6.681818388639611
 10
461.0359099658602
 20
6.681818388639611
 10
461.0359099658602
 20
390.2181820250033
 10
-60.14590821595844
 20
390.2181820250033
  0
LINE
  5
BD28
330
1F
100
AcDbEntity
  8
DKM2_OUTLINE
370
    50
100
AcDbLine
 10
454.3540917840411
 20
78.50181838864258
 30
0.0
 11
454.3540917840411
 21
383.5363638431847
 31
0.0
  0
LINE
  5
BD29
330
1F
100
AcDbEntity
  8
DKM2_OUTLINE
100
AcDbLine
 10
454.3540917840411
 20
383.5363638431847
 30
0.0
 11
-53.46409003414006
 21
383.5363638431847
 31
0.0
  0
LINE
  5
BD2A
330
1F
100
AcDbEntity
  8
DKM2_OUTLINE
370
    50
100
AcDbLine
 10
-53.46409003414006
 20
383.5363638431847
 30
0.0
 11
-53.46409003414006
 21
13.36363657045786
 31
0.0
  0
LINE
  5
BD2B
330
1F
100
AcDbEntity
  8
DKM2_OUTLINE
100
AcDbLine
 10
-53.46409003414006
 20
13.36363657045786
 30
0.0
 11
230.455909965852
 21
13.36363657045877
 31
0.0
  0
LINE
  5
BD2C
330
1F
100
AcDbEntity
  8
DKM5_DIM_LINE
100
AcDbLine
 10
-53.46409003414006
 20
22.81363657045786
 30
0.0
 11
59.93400087495105
 21
22.81363657045834
 31
0.0
  0
LINE
  5
BD2D
330
1F
100
AcDbEntity
  8
DKM5_DIM_LINE
100
AcDbLine
 10
-53.46409003414006
 20
32.26363657045786
 30
0.0
 11
59.93400087495105
 21
32.26363657045834
 31
0.0
  0
LINE
  5
BD2E
330
1F
100
AcDbEntity
  8
DKM5_DIM_LINE
100
AcDbLine
 10
-53.46409003414006
 20
41.71363657045786
 30
0.0
 11
59.93400087495105
 21
41.71363657045826
 31
0.0
  0
LINE
  5
BD2F
330
1F
100
AcDbEntity
  8
DKM1_SOLIDLINE
370
    50
100
AcDbLine
 10
5.001819056769264
 20
6.681818388639611
 30
0.0
 11
5.001819056769264
 21
13.36363657045786
 31
0.0
  0
LINE
  5
BD30
330
1F
100
AcDbEntity
  8
DKM1_SOLIDLINE
370
    50
100
AcDbLine
 10
5.001819056769264
 20
383.5363638431847
 30
0.0
 11
5.001819056769264
 21
390.2181820250033
 31
0.0
  0
LINE
  5
BD31
330
1F
100
AcDbEntity
  8
DKM1_SOLIDLINE
370
    50
100
AcDbLine
 10
70.14954632949597
 20
6.681818388639611
 30
0.0
 11
70.14954632949597
 21
13.36363657045786
 31
0.0
  0
LINE
  5
BD32
330
1F
100
AcDbEntity
  8
DKM1_SOLIDLINE
370
    50
100
AcDbLine
 10
70.14954632949597
 20
383.5363638431847
 30
0.0
 11
70.14954632949597
 21
390.2181820250033
 31
0.0
  0
LINE
  5
BD33
330
1F
100
AcDbEntity
  8
DKM1_SOLIDLINE
370
    50
100
AcDbLine
 10
135.2972736022237
 20
6.681818388639611
 30
0.0
 11
135.2972736022237
 21
13.36363657045786
 31
0.0
  0
LINE
  5
BD34
330
1F
100
AcDbEntity
  8
DKM1_SOLIDLINE
370
    50
100
AcDbLine
 10
135.2972736022237
 20
383.5363638431847
 30
0.0
 11
135.2972736022237
 21
390.2181820250033
 31
0.0
  0
LINE
  5
BD35
330
1F
100
AcDbEntity
  8
DKM2_OUTLINE
100
AcDbLine
 10
200.4450008749507
 20
383.5363638431847
 30
0.0
 11
200.4450008749507
 21
396.9000002068213
 31
0.0
  0
LINE
  5
BD36
330
1F
100
AcDbEntity
  8
DKM1_SOLIDLINE
370
    50
100
AcDbLine
 10
265.5927281476785
 20
383.5363638431847
 30
0.0
 11
265.5927281476785
 21
390.2181820250033
 31
0.0
  0
LINE
  5
BD37
330
1F
100
AcDbEntity
  8
DKM1_SOLIDLINE
370
    50
100
AcDbLine
 10
330.7404554204048
 20
383.5363638431847
 30
0.0
 11
330.7404554204048
 21
390.2181820250033
 31
0.0
  0
LINE
  5
BD38
330
1F
100
AcDbEntity
  8
DKM1_SOLIDLINE
370
    50
100
AcDbLine
 10
395.8881826931326
 20
383.5363638431847
 30
0.0
 11
395.8881826931326
 21
390.2181820250033
 31
0.0
  0
LINE
  5
BD39
330
1F
100
AcDbEntity
  8
DKM2_OUTLINE
370
    50
100
AcDbLine
 10
-66.82772639777628
 20
198.4500002068213
 30
0.0
 11
-53.46409003414006
 21
198.4500002068213
 31
0.0
  0
LINE
  5
BD3A
330
1F
100
AcDbEntity
  8
DKM1_SOLIDLINE
370
    50
100
AcDbLine
 10
-60.14590821595844
 20
134.5317274795488
 30
0.0
 11
-53.46409003414006
 21
134.5317274795488
 31
0.0
  0
LINE
  5
BD3B
330
1F
100
AcDbEntity
  8
DKM1_SOLIDLINE
370
    50
100
AcDbLine
 10
-60.14590821595844
 20
70.61345475227594
 30
0.0
 11
-53.46409003414006
 21
70.61345475227594
 31
0.0
  0
LINE
  5
BD3C
330
1F
100
AcDbEntity
  8
DKM1_SOLIDLINE
370
    50
100
AcDbLine
 10
-60.14590821595844
 20
262.3682729340944
 30
0.0
 11
-53.46409003414006
 21
262.3682729340944
 31
0.0
  0
LINE
  5
BD3D
330
1F
100
AcDbEntity
  8
DKM1_SOLIDLINE
370
    50
100
AcDbLine
 10
-60.14590821595844
 20
326.2865456613669
 30
0.0
 11
-53.46409003414006
 21
326.2865456613669
 31
0.0
  0
LINE
  5
BD3E
330
1F
100
AcDbEntity
  8
DKM2_OUTLINE
370
    50
100
AcDbLine
 10
454.3540917840411
 20
198.4500002068213
 30
0.0
 11
467.7177281476782
 21
198.4500002068213
 31
0.0
  0
MTEXT
  5
BD3F
330
1F
100
AcDbEntity
  8
DKM7_TEXT
100
AcDbMText
 10
102.7234099658599
 20
386.8772729340943
 30
0.0
 40
3.34090909090909
 41
65.14772727272727
 71
     5
 72
     5
  1
3
 73
     1
 44
1.0
  0
MTEXT
  5
BD40
330
1F
100
AcDbEntity
  8
DKM7_TEXT
100
AcDbMText
 10
37.57568269313303
 20
386.8772729340943
 30
0.0
 40
3.34090909090909
 41
65.14772727272727
 71
     5
 72
     5
  1
2
 73
     1
 44
1.0
  0
MTEXT
  5
BD41
330
1F
100
AcDbEntity
  8
DKM7_TEXT
100
AcDbMText
 10
-27.57204457959439
 20
386.8772729340943
 30
0.0
 40
3.34090909090909
 41
65.14772727272727
 71
     5
 72
     5
  1
1
 73
     1
 44
1.0
  0
MTEXT
  5
BD42
330
1F
100
AcDbEntity
  8
DKM7_TEXT
100
AcDbMText
 10
167.8711372385872
 20
386.8772729340943
 30
0.0
 40
3.34090909090909
 41
65.14772727272727
 71
     5
 72
     5
  1
4
 73
     1
 44
1.0
  0
MTEXT
  5
BD43
330
1F
100
AcDbEntity
  8
DKM7_TEXT
100
AcDbMText
 10
233.0188645113145
 20
386.8772729340943
 30
0.0
 40
3.34090909090909
 41
65.14772727272727
 71
     5
 72
     5
  1
5
 73
     1
 44
1.0
  0
MTEXT
  5
BD44
330
1F
100
AcDbEntity
  8
DKM7_TEXT
100
AcDbMText
 10
298.1665917840421
 20
386.8772729340943
 30
0.0
 40
3.34090909090909
 41
65.14772727272727
 71
     5
 72
     5
  1
6
 73
     1
 44
1.0
  0
MTEXT
  5
BD45
330
1F
100
AcDbEntity
  8
DKM7_TEXT
100
AcDbMText
 10
363.3143190567691
 20
386.8772729340943
 30
0.0
 40
3.34090909090909
 41
65.14772727272727
 71
     5
 72
     5
  1
7
 73
     1
 44
1.0
  0
MTEXT
  5
BD46
330
1F
100
AcDbEntity
  8
DKM7_TEXT
100
AcDbMText
 10
428.4620463294966
 20
386.8772729340943
 30
0.0
 40
3.34090909090909
 41
65.14772727272727
 71
     5
 72
     5
  1
8
 73
     1
 44
1.0
  0
MTEXT
  5
BD47
330
1F
100
AcDbEntity
  8
DKM7_TEXT
100
AcDbMText
 10
102.7234099658599
 20
10.02272747954853
 30
0.0
 40
3.34090909090909
 41
6.681818181818181
 71
     5
 72
     5
  1
3
 73
     1
 44
1.0
  0
MTEXT
  5
BD48
330
1F
100
AcDbEntity
  8
DKM7_TEXT
100
AcDbMText
 10
37.57568269313303
 20
10.02272747954853
 30
0.0
 40
3.34090909090909
 41
6.681818181818181
 71
     5
 72
     5
  1
2
 73
     1
 44
1.0
  0
MTEXT
  5
BD49
330
1F
100
AcDbEntity
  8
DKM7_TEXT
100
AcDbMText
 10
-27.57204457959439
 20
10.02272747954853
 30
0.0
 40
3.34090909090909
 41
6.681818181818181
 71
     5
 72
     5
  1
1
 73
     1
 44
1.0
  0
LINE
  5
BD4A
330
1F
100
AcDbEntity
  8
DKM1_SOLIDLINE
370
    50
100
AcDbLine
 10
454.3540917840411
 20
134.5317274795488
 30
0.0
 11
461.0359099658602
 21
134.5317274795488
 31
0.0
  0
LINE
  5
BD4B
330
1F
100
AcDbEntity
  8
DKM1_SOLIDLINE
370
    50
100
AcDbLine
 10
454.3540917840411
 20
262.3682729340944
 30
0.0
 11
461.0359099658602
 21
262.3682729340944
 31
0.0
  0
LINE
  5
BD4C
330
1F
100
AcDbEntity
  8
DKM1_SOLIDLINE
370
    50
100
AcDbLine
 10
454.3540917840411
 20
326.2865456613669
 30
0.0
 11
461.0359099658602
 21
326.2865456613669
 31
0.0
  0
MTEXT
  5
BD4D
330
1F
100
AcDbEntity
  8
DKM7_TEXT
100
AcDbMText
 10
-56.80499912504897
 20
166.4908638431849
 30
0.0
 40
3.34090909090909
 41
6.681818181818181
 71
     5
 72
     5
  1
D
 73
     1
 44
1.0
  0
MTEXT
  5
BD4E
330
1F
100
AcDbEntity
  8
DKM7_TEXT
100
AcDbMText
 10
-56.80499912504897
 20
102.5725911159122
 30
0.0
 40
3.34090909090909
 41
6.681818181818181
 71
     5
 72
     5
  1
E
 73
     1
 44
1.0
  0
MTEXT
  5
BD4F
330
1F
100
AcDbEntity
  8
DKM7_TEXT
100
AcDbMText
 10
-56.80499912504897
 20
230.4091365704578
 30
0.0
 40
3.34090909090909
 41
6.681818181818181
 71
     5
 72
     5
  1
C
 73
     1
 44
1.0
  0
MTEXT
  5
BD50
330
1F
100
AcDbEntity
  8
DKM7_TEXT
100
AcDbMText
 10
-56.80499912504897
 20
294.3274092977302
 30
0.0
 40
3.34090909090909
 41
6.681818181818181
 71
     5
 72
     5
  1
B
 73
     1
 44
1.0
  0
MTEXT
  5
BD51
330
1F
100
AcDbEntity
  8
DKM7_TEXT
100
AcDbMText
 10
-56.80499912504897
 20
358.2523638431849
 30
0.0
 40
3.34090909090909
 41
6.681818181818181
 71
     5
 72
     5
  1
A
 73
     1
 44
1.0
  0
MTEXT
  5
BD52
330
1F
100
AcDbEntity
  8
DKM7_TEXT
100
AcDbMText
 10
-56.80499912504897
 20
38.64763657045779
 30
0.0
 40
3.34090909090909
 41
6.681818181818181
 71
     5
 72
     5
  1
F
 73
     1
 44
1.0
  0
MTEXT
  5
BD53
330
1F
100
AcDbEntity
  8
DKM7_TEXT
100
AcDbMText
 10
457.6950008749506
 20
166.4908638431849
 30
0.0
 40
3.34090909090909
 41
6.681818181818181
 71
     5
 72
     5
  1
D
 73
     1
 44
1.0
  0
MTEXT
  5
BD54
330
1F
100
AcDbEntity
  8
DKM7_TEXT
100
AcDbMText
 10
457.6950008749506
 20
102.5725911159122
 30
0.0
 40
3.34090909090909
 41
6.681818181818181
 71
     5
 72
     5
  1
E
 73
     1
 44
1.0
  0
MTEXT
  5
BD55
330
1F
100
AcDbEntity
  8
DKM7_TEXT
100
AcDbMText
 10
457.6950008749506
 20
230.4091365704578
 30
0.0
 40
3.34090909090909
 41
6.681818181818181
 71
     5
 72
     5
  1
C
 73
     1
 44
1.0
  0
MTEXT
  5
BD56
330
1F
100
AcDbEntity
  8
DKM7_TEXT
100
AcDbMText
 10
457.6950008749506
 20
294.3274092977302
 30
0.0
 40
3.34090909090909
 41
6.681818181818181
 71
     5
 72
     5
  1
B
 73
     1
 44
1.0
  0
MTEXT
  5
BD57
330
1F
100
AcDbEntity
  8
DKM7_TEXT
100
AcDbMText
 10
457.6950008749506
 20
358.2523638431849
 30
0.0
 40
3.34090909090909
 41
6.681818181818181
 71
     5
 72
     5
  1
A
 73
     1
 44
1.0
  0
LINE
  5
BD58
330
1F
100
AcDbEntity
  8
Defpoints
100
AcDbLine
 10
-85.24174821595812
 20
198.4500002068213
 30
0.0
 11
-93.55499912504912
 21
198.4500002068213
 31
0.0
  0
LINE
  5
BD59
330
1F
100
AcDbEntity
  8
DKM5_DIM_LINE
100
AcDbLine
 10
-34.56599912504922
 20
41.71363657045723
 30
0.0
 11
-34.56599912504922
 21
13.36363657045786
 31
0.0
  0
LINE
  5
BD5A
330
1F
100
AcDbEntity
  8
DKM5_DIM_LINE
100
AcDbLine
 10
22.13400087495079
 20
41.71363657045786
 30
0.0
 11
22.13400087495079
 21
13.36363657045786
 31
0.0
  0
LINE
  5
BD5B
330
1F
100
AcDbEntity
  8
DKM5_DIM_LINE
100
AcDbLine
 10
41.03400087495082
 20
41.71363657045786
 30
0.0
 11
41.03400087495082
 21
13.36363657045786
 31
0.0
  0
LINE
  5
BD5C
330
1F
100
AcDbEntity
  8
DKM2_OUTLINE
100
AcDbLine
 10
59.93400087495105
 20
41.71363657045786
 30
0.0
 11
59.93400087495105
 21
13.36363657045786
 31
0.0
  0
LWPOLYLINE
  5
BD5D
330
1F
100
AcDbEntity
  8
Defpoints
100
AcDbPolyline
 90
        4
 70
     1
 43
0.0
 10
-93.55499912504912
 20
0.0000002068213689
 10
467.7750008749507
 20
0.0000002068213689
 10
467.7750008749507
 20
396.9000002068213
 10
-93.55499912504912
 20
396.9000002068213
  0
LINE
  5
BD5E
330
1F
100
AcDbEntity
  8
DKM9_BORDERLINE
100
AcDbLine
 10
360.8659099658609
 20
6.681818388640499
 30
0.0
 11
389.21590996586
 21
6.681818388640022
 31
0.0
  0
LINE
  5
BD5F
330
1F
100
AcDbEntity
  8
DKM9_BORDERLINE
100
AcDbLine
 10
389.21590996586
 20
6.681818388640022
 30
0.0
 11
461.0359099658602
 21
6.681818388639611
 31
0.0
  0
LINE
  5
BD60
330
1F
100
AcDbEntity
  8
DKM9_BORDERLINE
100
AcDbLine
 10
461.0359099658602
 20
6.681818388639611
 30
0.0
 11
461.0359099658602
 21
78.50181838864236
 31
0.0
  0
LINE
  5
BD61
330
1F
100
AcDbEntity
  8
DKM1_SOLIDLINE
100
AcDbLine
 10
389.2159099658608
 20
59.60181838864264
 30
0.0
 11
389.21590996586
 21
6.681818388640022
 31
0.0
  0
LINE
  5
BD62
330
1F
100
AcDbEntity
  8
DKM2_OUTLINE
100
AcDbLine
 10
360.8659099658614
 20
59.60181838864284
 30
0.0
 11
360.8659099658609
 21
6.681818388640499
 31
0.0
  0
LINE
  5
BD63
330
1F
100
AcDbEntity
  8
DKM5_DIM_LINE
100
AcDbLine
 10
338.1859099658614
 20
59.60181838864284
 30
0.0
 11
338.185909965861
 21
33.14181838864133
 31
0.0
  0
LINE
  5
BD64
330
1F
100
AcDbEntity
  8
DKM5_DIM_LINE
100
AcDbLine
 10
315.5059099658612
 20
59.60181838864284
 30
0.0
 11
315.5059099658606
 21
33.14181838864133
 31
0.0
  0
LINE
  5
BD65
330
1F
100
AcDbEntity
  8
DKM5_DIM_LINE
100
AcDbLine
 10
292.825909965861
 20
59.60181838864284
 30
0.0
 11
292.825909965861
 21
33.14181838864133
 31
0.0
  0
LINE
  5
BD66
330
1F
100
AcDbEntity
  8
DKM1_SOLIDLINE
100
AcDbLine
 10
328.7359099658591
 20
78.50181838864284
 30
0.0
 11
328.7359099658583
 21
59.60181838864284
 31
0.0
  0
LINE
  5
BD67
330
1F
100
AcDbEntity
  8
DKM1_SOLIDLINE
100
AcDbLine
 10
255.0259099658542
 20
78.50181838864258
 30
0.0
 11
255.0259099658517
 21
6.681818388639611
 31
0.0
  0
LINE
  5
BD68
330
1F
100
AcDbEntity
  8
DKM2_OUTLINE
100
AcDbLine
 10
230.4559099658541
 20
78.50181838864347
 30
0.0
 11
230.4559099658519
 21
6.681818388640499
 31
0.0
  0
LINE
  5
BD6B
330
1F
100
AcDbEntity
  8
DKM1_SOLIDLINE
100
AcDbLine
 10
461.0359099658602
 20
19.91181838863985
 30
0.0
 11
389.21590996586
 21
19.91181838864006
 31
0.0
  0
LINE
  5
BD6C
330
1F
100
AcDbEntity
  8
DKM1_SOLIDLINE
100
AcDbLine
 10
389.21590996586
 20
19.91181838864047
 30
0.0
 11
360.8659099658609
 21
19.91181838864006
 31
0.0
  0
LINE
  5
BD6D
330
1F
100
AcDbEntity
  8
DKM5_DIM_LINE
100
AcDbLine
 10
255.0259099658526
 20
19.91181838864047
 30
0.0
 11
230.4559099658523
 21
19.91181838864094
 31
0.0
  0
LINE
  5
BD6E
330
1F
100
AcDbEntity
  8
DKM1_SOLIDLINE
100
AcDbLine
 10
461.0359099658602
 20
33.14181838864064
 30
0.0
 11
389.21590996586
 21
33.14181838864092
 31
0.0
  0
LINE
  5
BD6F
330
1F
100
AcDbEntity
  8
DKM1_SOLIDLINE
100
AcDbLine
 10
389.21590996586
 20
33.14181838864133
 30
0.0
 11
360.8659099658609
 21
33.14181838864133
 31
0.0
  0
LINE
  5
BD70
330
1F
100
AcDbEntity
  8
DKM5_DIM_LINE
100
AcDbLine
 10
360.8659099658614
 20
33.14181838864133
 30
0.0
 11
230.4559099658527
 21
33.14181838864133
 31
0.0
  0
LINE
  5
BD71
330
1F
100
AcDbEntity
  8
DKM1_SOLIDLINE
100
AcDbLine
 10
461.0359099658602
 20
46.37181838864171
 30
0.0
 11
389.21590996586
 21
46.37181838864171
 31
0.0
  0
LINE
  5
BD72
330
1F
100
AcDbEntity
  8
DKM2_OUTLINE
100
AcDbLine
 10
461.0359099658602
 20
59.60181838864237
 30
0.0
 11
389.21590996586
 21
59.60181838864237
 31
0.0
  0
LINE
  5
BD73
330
1F
100
AcDbEntity
  8
DKM2_OUTLINE
100
AcDbLine
 10
389.2159099658605
 20
59.60181838864264
 30
0.0
 11
360.8659099658609
 21
59.60181838864284
 31
0.0
  0
LINE
  5
BD74
330
1F
100
AcDbEntity
  8
DKM2_OUTLINE
100
AcDbLine
 10
360.8659099658614
 20
59.60181838864284
 30
0.0
 11
230.4559099658533
 21
59.60181838864264
 31
0.0
  0
LINE
  5
BD75
330
1F
100
AcDbEntity
  8
DKM5_DIM_LINE
100
AcDbLine
 10
255.0259099658534
 20
52.04181838864304
 30
0.0
 11
230.4559099658533
 21
52.04181838864304
 31
0.0
  0
LINE
  5
BD76
330
1F
100
AcDbEntity
  8
DKM5_DIM_LINE
100
AcDbLine
 10
360.8659099658614
 20
52.04181838864393
 30
0.0
 11
292.825909965861
 21
52.04181838864323
 31
0.0
  0
LINE
  5
BD78
330
1F
100
AcDbEntity
  8
DKM1_SOLIDLINE
100
AcDbLine
 10
230.4559099658537
 20
69.05181838864347
 30
0.0
 11
360.8659099658614
 21
69.05181838864284
 31
0.0
  0
LINE
  5
BD79
330
1F
100
AcDbEntity
  8
DKM1_SOLIDLINE
100
AcDbLine
 10
360.8659099658609
 20
69.05181838864237
 30
0.0
 11
389.2159099658608
 21
69.05181838864237
 31
0.0
  0
LINE
  5
BD7A
330
1F
100
AcDbEntity
  8
DKM1_SOLIDLINE
100
AcDbLine
 10
389.21590996586
 20
69.05181838864237
 30
0.0
 11
461.0359099658602
 21
69.05181838864237
 31
0.0
  0
LINE
  5
BD7B
330
1F
100
AcDbEntity
  8
DKM1_SOLIDLINE
100
AcDbLine
 10
230.4559099658541
 20
78.50181838864258
 30
0.0
 11
360.8659099658614
 21
78.50181838864284
 31
0.0
  0
LINE
  5
BD7C
330
1F
100
AcDbEntity
  8
DKM1_SOLIDLINE
100
AcDbLine
 10
360.8659099658609
 20
78.50181838864258
 30
0.0
 11
389.2159099658608
 21
78.50181838864284
 31
0.0
  0
LINE
  5
BD7D
330
1F
100
AcDbEntity
  8
DKM1_SOLIDLINE
100
AcDbLine
 10
389.21590996586
 20
78.50181838864236
 30
0.0
 11
461.0359099658602
 21
78.50181838864236
 31
0.0
  0
LINE
  5
BD7E
330
1F
100
AcDbEntity
  8
DKM9_BORDERLINE
100
AcDbLine
 10
230.4559099658519
 20
6.681818388640499
 30
0.0
 11
360.8659099658609
 21
6.681818388640499
 31
0.0
  0
LINE
  5
BD7F
330
1F
100
AcDbEntity
  8
DKM9_BORDERLINE
100
AcDbLine
 10
158.6359099658519
 20
6.681818388637907
 30
0.0
 11
230.4559099658519
 21
6.681818388635314
 31
0.0
  0
HATCH
  5
BD86
330
1F
100
AcDbEntity
  8
0
 62
   158
100
AcDbHatch
 10
0.0
 20
0.0
 30
0.0
210
0.0
220
0.0
230
0.9999999999999998
  2
SOLID
 70
     1
 71
     0
 91
        1
 92
        5
 93
        4
 72
     4
 94
        3
 73
     0
 74
     0
 95
       11
 96
        7
 40
1.0
 40
1.0
 40
1.0
 40
1.0
 40
2.0
 40
2.0
 40
2.0
 40
3.0
 40
3.0
 40
3.0
 40
3.0
 10
297.440300171521
 20
20.83522691809916
 10
297.0297290956397
 20
23.72837527489047
 10
294.7418114726309
 20
26.01613128755565
 10
291.8487439210104
 20
26.42613672723794
 10
291.8487439210104
 20
26.42613672723794
 10
291.8487439210104
 20
25.48281715631904
 10
291.8487439210104
 20
25.48281715631904
 72
     4
 94
        3
 73
     0
 74
     0
 95
        8
 96
        4
 40
3.0
 40
3.0
 40
3.0
 40
3.0
 40
4.0
 40
4.0
 40
4.0
 40
4.0
 10
291.8487439210104
 20
25.48281715631904
 10
293.0373071871276
 20
25.28629897947484
 10
294.0994103600048
 20
24.71920828659281
 10
294.9161082273402
 20
23.90307605545691
 72
     4
 94
        3
 73
     0
 74
     0
 95
        8
 96
        4
 40
4.0
 40
4.0
 40
4.0
 40
4.0
 40
5.0
 40
5.0
 40
5.0
 40
5.0
 10
294.9161082273402
 20
23.90307605545691
 10
295.7325636791619
 20
23.08597416226387
 10
296.2992503461872
 20
22.02403259972991
 10
296.4961725488877
 20
20.83522691809916
 72
     4
 94
        3
 73
     0
 74
     0
 95
        8
 96
        4
 40
0.0
 40
0.0
 40
0.0
 40
0.0
 40
1.0
 40
1.0
 40
1.0
 40
1.0
 10
296.4961725488877
 20
20.83522691809916
 10
296.4961725488877
 20
20.83522691809916
 10
297.440300171521
 20
20.83522691809916
 10
297.440300171521
 20
20.83522691809916
 97
        0
 75
     0
 76
     1
 47
0.2486045634294846
 98
        1
 10
294.0415238276713
 20
25.16866324222938
450
        0
451
        0
460
0.0
461
0.0
452
        0
462
0.0
453
        0
470

1001
ACAD
1010
0.0
1020
0.0
1030
0.0
  0
SPLINE
  5
BD87
330
1F
100
AcDbEntity
  8
0
370
     0
100
AcDbSpline
210
0.0
220
0.0
230
1.0
 70
    11
 71
     3
 72
    20
 73
    16
 74
     0
 42
0.0000000001
 43
0.0000000001
 40
0.0
 40
0.0
 40
0.0
 40
0.0
 40
1.0
 40
1.0
 40
1.0
 40
2.0
 40
2.0
 40
2.0
 40
3.0
 40
3.0
 40
3.0
 40
4.0
 40
4.0
 40
4.0
 40
5.0
 40
5.0
 40
5.0
 40
5.0
 10
296.4961725488877
 20
20.83522691809781
 30
0.0
 10
296.4961725488877
 20
20.83522691809781
 30
0.0
 10
297.440300171521
 20
20.83522691809781
 30
0.0
 10
297.440300171521
 20
20.83522691809781
 30
0.0
 10
297.0297290956397
 20
23.72837527488918
 30
0.0
 10
294.7418114726309
 20
26.01613128755444
 30
0.0
 10
291.8487439210104
 20
26.42613672723671
 30
0.0
 10
291.8487439210104
 20
26.42613672723671
 30
0.0
 10
291.8487439210104
 20
25.48281715631775
 30
0.0
 10
291.8487439210104
 20
25.48281715631775
 30
0.0
 10
293.0373071871276
 20
25.28629897947335
 30
0.0
 10
294.0994103600048
 20
24.71920828659131
 30
0.0
 10
294.9161082273402
 20
23.90307605545567
 30
0.0
 10
295.7325636791619
 20
23.08597416226258
 30
0.0
 10
296.2992503461872
 20
22.02403259972862
 30
0.0
 10
296.4961725488877
 20
20.83522691809781
 30
0.0
  0
HATCH
  5
BD88
330
1F
100
AcDbEntity
  8
0
 62
   158
100
AcDbHatch
 10
0.0
 20
0.0
 30
0.0
210
0.0
220
0.0
230
0.9999999999999998
  2
SOLID
 70
     1
 71
     0
 91
        1
 92
        5
 93
        4
 72
     4
 94
        3
 73
     0
 74
     0
 95
        8
 96
        4
 40
4.0
 40
4.0
 40
4.0
 40
4.0
 40
5.0
 40
5.0
 40
5.0
 40
5.0
 10
289.9833565392502
 20
26.42613672723794
 10
287.0904505979731
 20
26.01613128755565
 10
284.802532974964
 20
23.72837527489047
 10
284.3925275352826
 20
20.83522691809916
 72
     4
 94
        3
 73
     0
 74
     0
 95
        8
 96
        4
 40
0.0
 40
0.0
 40
0.0
 40
0.0
 40
1.0
 40
1.0
 40
1.0
 40
1.0
 10
284.3925275352826
 20
20.83522691809916
 10
284.3925275352826
 20
20.83522691809916
 10
285.3359279113729
 20
20.83522691809916
 10
285.3359279113729
 20
20.83522691809916
 72
     4
 94
        3
 73
     0
 74
     0
 95
        8
 96
        4
 40
1.0
 40
1.0
 40
1.0
 40
1.0
 40
2.0
 40
2.0
 40
2.0
 40
2.0
 10
285.3359279113729
 20
20.83522691809916
 10
285.5330925295884
 20
22.02403259972991
 10
286.0996175862711
 20
23.08597416226387
 10
286.9159922329213
 20
23.90307605545691
 72
     4
 94
        3
 73
     0
 74
     0
 95
       11
 96
        7
 40
2.0
 40
2.0
 40
2.0
 40
2.0
 40
3.0
 40
3.0
 40
3.0
 40
4.0
 40
4.0
 40
4.0
 40
4.0
 10
286.9159922329213
 20
23.90307605545691
 10
287.7322052692285
 20
24.71920828659281
 10
288.7951164938188
 20
25.28629897947484
 10
289.9833565392502
 20
25.48281715631904
 10
289.9833565392502
 20
25.48281715631904
 10
289.9833565392502
 20
26.42613672723794
 10
289.9833565392502
 20
26.42613672723794
 97
        0
 75
     0
 76
     1
 47
0.1930435290342435
 98
        1
 10
287.5924477675021
 20
25.16316716941727
450
        0
451
        0
460
0.0
461
0.0
452
        0
462
0.0
453
        0
470

1001
ACAD
1010
0.0
1020
0.0
1030
0.0
  0
SPLINE
  5
BD89
330
1F
100
AcDbEntity
  8
0
370
     0
100
AcDbSpline
210
0.0
220
0.0
230
1.0
 70
    11
 71
     3
 72
    20
 73
    16
 74
     0
 42
0.0000000001
 43
0.0000000001
 40
0.0
 40
0.0
 40
0.0
 40
0.0
 40
1.0
 40
1.0
 40
1.0
 40
2.0
 40
2.0
 40
2.0
 40
3.0
 40
3.0
 40
3.0
 40
4.0
 40
4.0
 40
4.0
 40
5.0
 40
5.0
 40
5.0
 40
5.0
 10
284.3925275352826
 20
20.83522691809781
 30
0.0
 10
284.3925275352826
 20
20.83522691809781
 30
0.0
 10
285.3359279113729
 20
20.83522691809781
 30
0.0
 10
285.3359279113729
 20
20.83522691809781
 30
0.0
 10
285.5330925295881
 20
22.02403259972862
 30
0.0
 10
286.0996175862711
 20
23.08597416226258
 30
0.0
 10
286.9159922329213
 20
23.90307605545567
 30
0.0
 10
287.7322052692285
 20
24.71920828659131
 30
0.0
 10
288.7951164938188
 20
25.28629897947335
 30
0.0
 10
289.9833565392502
 20
25.48281715631775
 30
0.0
 10
289.9833565392502
 20
25.48281715631775
 30
0.0
 10
289.9833565392502
 20
26.42613672723671
 30
0.0
 10
289.9833565392502
 20
26.42613672723671
 30
0.0
 10
287.0904505979731
 20
26.01613128755444
 30
0.0
 10
284.802532974964
 20
23.72837527488918
 30
0.0
 10
284.3925275352826
 20
20.83522691809781
 30
0.0
  0
HATCH
  5
BD8A
330
1F
100
AcDbEntity
  8
0
 62
   158
100
AcDbHatch
 10
0.0
 20
0.0
 30
0.0
210
0.0
220
0.0
230
0.9999999999999998
  2
SOLID
 70
     1
 71
     0
 91
        1
 92
        5
 93
        3
 72
     4
 94
        3
 73
     0
 74
     0
 95
       11
 96
        7
 40
2.0
 40
2.0
 40
2.0
 40
2.0
 40
3.0
 40
3.0
 40
3.0
 40
4.0
 40
4.0
 40
4.0
 40
4.0
 10
291.8487439210104
 20
13.37949536339919
 10
294.7418114726309
 20
13.78950080308058
 10
297.0297290956397
 20
16.07741842608952
 10
297.440300171521
 20
18.97024356219592
 10
297.440300171521
 20
18.97024356219592
 10
296.4961725488877
 20
18.97024356219592
 10
296.4961725488877
 20
18.97024356219592
 72
     4
 94
        3
 73
     0
 74
     0
 95
        8
 96
        4
 40
4.0
 40
4.0
 40
4.0
 40
4.0
 40
5.0
 40
5.0
 40
5.0
 40
5.0
 10
296.4961725488877
 20
18.97024356219592
 10
296.2992503461872
 20
17.78143788056408
 10
295.7325636791619
 20
16.71933470768815
 10
294.9161082273402
 20
15.90287925586603
 72
     4
 94
        3
 73
     0
 74
     0
 95
       11
 96
        7
 40
0.0
 40
0.0
 40
0.0
 40
0.0
 40
1.0
 40
1.0
 40
1.0
 40
2.0
 40
2.0
 40
2.0
 40
2.0
 10
294.9161082273402
 20
15.90287925586603
 10
294.0994103600048
 20
15.08658541438719
 10
293.0373071871276
 20
14.51949472150515
 10
291.8487439210104
 20
14.3229765446611
 10
291.8487439210104
 20
14.3229765446611
 10
291.8487439210104
 20
13.37949536339919
 10
291.8487439210104
 20
13.37949536339919
 97
        0
 75
     0
 76
     1
 47
0.0471732188552244
 98
        1
 10
295.4849754286616
 20
15.56799872343278
450
        0
451
        0
460
0.0
461
0.0
452
        0
462
0.0
453
        0
470

1001
ACAD
1010
0.0
1020
0.0
1030
0.0
  0
SPLINE
  5
BD8B
330
1F
100
AcDbEntity
  8
0
370
     0
100
AcDbSpline
210
0.0
220
0.0
230
1.0
 70
    11
 71
     3
 72
    20
 73
    16
 74
     0
 42
0.0000000001
 43
0.0000000001
 40
0.0
 40
0.0
 40
0.0
 40
0.0
 40
1.0
 40
1.0
 40
1.0
 40
2.0
 40
2.0
 40
2.0
 40
3.0
 40
3.0
 40
3.0
 40
4.0
 40
4.0
 40
4.0
 40
5.0
 40
5.0
 40
5.0
 40
5.0
 10
294.9161082273402
 20
15.9028792558646
 30
0.0
 10
294.0994103600048
 20
15.0865854143859
 30
0.0
 10
293.0373071871276
 20
14.51949472150386
 30
0.0
 10
291.8487439210104
 20
14.32297654465987
 30
0.0
 10
291.8487439210104
 20
14.32297654465987
 30
0.0
 10
291.8487439210104
 20
13.37949536339797
 30
0.0
 10
291.8487439210104
 20
13.37949536339797
 30
0.0
 10
294.7418114726309
 20
13.78950080307936
 30
0.0
 10
297.0297290956397
 20
16.07741842608803
 30
0.0
 10
297.440300171521
 20
18.97024356219463
 30
0.0
 10
297.440300171521
 20
18.97024356219463
 30
0.0
 10
296.4961725488877
 20
18.97024356219463
 30
0.0
 10
296.4961725488877
 20
18.97024356219463
 30
0.0
 10
296.2992503461872
 20
17.78143788056279
 30
0.0
 10
295.7325636791619
 20
16.71933470768686
 30
0.0
 10
294.9161082273402
 20
15.9028792558646
 30
0.0
  0
HATCH
  5
BD8C
330
1F
100
AcDbEntity
  8
0
 62
   158
100
AcDbHatch
 10
0.0
 20
0.0
 30
0.0
210
0.0
220
0.0
230
0.9999999999999998
  2
SOLID
 70
     1
 71
     0
 91
        1
 92
        5
 93
        4
 72
     4
 94
        3
 73
     0
 74
     0
 95
       11
 96
        7
 40
1.0
 40
1.0
 40
1.0
 40
1.0
 40
2.0
 40
2.0
 40
2.0
 40
3.0
 40
3.0
 40
3.0
 40
3.0
 10
284.3925275352826
 20
18.97024356219592
 10
284.802532974964
 20
16.07741842608952
 10
287.0904505979731
 20
13.78950080308058
 10
289.9833565392502
 20
13.37949536339919
 10
289.9833565392502
 20
13.37949536339919
 10
289.9833565392502
 20
14.3229765446611
 10
289.9833565392502
 20
14.3229765446611
 72
     4
 94
        3
 73
     0
 74
     0
 95
        8
 96
        4
 40
3.0
 40
3.0
 40
3.0
 40
3.0
 40
4.0
 40
4.0
 40
4.0
 40
4.0
 10
289.9833565392502
 20
14.3229765446611
 10
288.7951164938188
 20
14.51949472150515
 10
287.7322052692285
 20
15.08658541438719
 10
286.9159922329213
 20
15.90287925586603
 72
     4
 94
        3
 73
     0
 74
     0
 95
        8
 96
        4
 40
4.0
 40
4.0
 40
4.0
 40
4.0
 40
5.0
 40
5.0
 40
5.0
 40
5.0
 10
286.9159922329213
 20
15.90287925586603
 10
286.0996175862711
 20
16.71933470768815
 10
285.5330925295884
 20
17.78143788056408
 10
285.3359279113729
 20
18.97024356219592
 72
     4
 94
        3
 73
     0
 74
     0
 95
        8
 96
        4
 40
0.0
 40
0.0
 40
0.0
 40
0.0
 40
1.0
 40
1.0
 40
1.0
 40
1.0
 10
285.3359279113729
 20
18.97024356219592
 10
285.3359279113729
 20
18.97024356219592
 10
284.3925275352826
 20
18.97024356219592
 10
284.3925275352826
 20
18.97024356219592
 97
        0
 75
     0
 76
     1
 47
0.0466074277980674
 98
        1
 10
286.3079119912231
 20
15.63942026622667
450
        0
451
        0
460
0.0
461
0.0
452
        0
462
0.0
453
        0
470

1001
ACAD
1010
0.0
1020
0.0
1030
0.0
  0
SPLINE
  5
BD8D
330
1F
100
AcDbEntity
  8
0
370
     0
100
AcDbSpline
210
0.0
220
0.0
230
1.0
 70
    11
 71
     3
 72
    20
 73
    16
 74
     0
 42
0.0000000001
 43
0.0000000001
 40
0.0
 40
0.0
 40
0.0
 40
0.0
 40
1.0
 40
1.0
 40
1.0
 40
2.0
 40
2.0
 40
2.0
 40
3.0
 40
3.0
 40
3.0
 40
4.0
 40
4.0
 40
4.0
 40
5.0
 40
5.0
 40
5.0
 40
5.0
 10
285.3359279113729
 20
18.97024356219463
 30
0.0
 10
285.3359279113729
 20
18.97024356219463
 30
0.0
 10
284.3925275352826
 20
18.97024356219463
 30
0.0
 10
284.3925275352826
 20
18.97024356219463
 30
0.0
 10
284.802532974964
 20
16.07741842608803
 30
0.0
 10
287.0904505979731
 20
13.78950080307936
 30
0.0
 10
289.9833565392502
 20
13.37949536339797
 30
0.0
 10
289.9833565392502
 20
13.37949536339797
 30
0.0
 10
289.9833565392502
 20
14.32297654465987
 30
0.0
 10
289.9833565392502
 20
14.32297654465987
 30
0.0
 10
288.7951164938188
 20
14.51949472150386
 30
0.0
 10
287.7322052692285
 20
15.0865854143859
 30
0.0
 10
286.9159922329213
 20
15.9028792558646
 30
0.0
 10
286.0996175862711
 20
16.71933470768686
 30
0.0
 10
285.5330925295881
 20
17.78143788056279
 30
0.0
 10
285.3359279113729
 20
18.97024356219463
 30
0.0
  0
HATCH
  5
BD8E
330
1F
100
AcDbEntity
  8
0
 62
   158
100
AcDbHatch
 10
0.0
 20
0.0
 30
0.0
210
0.0
220
0.0
230
0.9999999999999998
  2
SOLID
 70
     1
 71
     0
 91
        3
 92
        5
 93
        8
 72
     4
 94
        3
 73
     0
 74
     0
 95
        8
 96
        4
 40
0.0
 40
0.0
 40
0.0
 40
0.0
 40
1.0
 40
1.0
 40
1.0
 40
1.0
 10
293.7534026160711
 20
23.52005954302123
 10
293.7534026160711
 20
23.52005954302123
 10
288.0787786493618
 20
23.52005954302123
 10
288.0787786493618
 20
23.52005954302123
 72
     4
 94
        3
 73
     0
 74
     0
 95
        8
 96
        4
 40
1.0
 40
1.0
 40
1.0
 40
1.0
 40
2.0
 40
2.0
 40
2.0
 40
2.0
 10
288.0787786493618
 20
23.52005954302123
 10
287.6482486961445
 20
23.52005954302123
 10
287.2991703556981
 20
23.170657981889
 10
287.2991703556981
 20
22.74045124935748
 72
     1
 10
287.2991703556981
 20
22.74045124935748
 11
287.2991703556981
 21
17.06582728264804
 72
     4
 94
        3
 73
     0
 74
     0
 95
        8
 96
        4
 40
3.0
 40
3.0
 40
3.0
 40
3.0
 40
4.0
 40
4.0
 40
4.0
 40
4.0
 10
287.2991703556981
 20
17.06582728264804
 10
287.2991703556981
 20
16.63529732943113
 10
287.6482486961445
 20
16.2860573786419
 10
288.0787786493618
 20
16.2860573786419
 72
     4
 94
        3
 73
     0
 74
     0
 95
        8
 96
        4
 40
4.0
 40
4.0
 40
4.0
 40
4.0
 40
5.0
 40
5.0
 40
5.0
 40
5.0
 10
288.0787786493618
 20
16.2860573786419
 10
288.0787786493618
 20
16.2860573786419
 10
293.7534026160711
 20
16.2860573786419
 10
293.7534026160711
 20
16.2860573786419
 72
     4
 94
        3
 73
     0
 74
     0
 95
        8
 96
        4
 40
5.0
 40
5.0
 40
5.0
 40
5.0
 40
6.0
 40
6.0
 40
6.0
 40
6.0
 10
293.7534026160711
 20
16.2860573786419
 10
294.183932569288
 20
16.2860573786419
 10
294.5330917149058
 20
16.63529732943113
 10
294.5330917149058
 20
17.06582728264804
 72
     1
 10
294.5330917149058
 20
17.06582728264804
 11
294.5330917149058
 21
22.74045124935748
 72
     4
 94
        3
 73
     0
 74
     0
 95
        8
 96
        4
 40
7.0
 40
7.0
 40
7.0
 40
7.0
 40
8.0
 40
8.0
 40
8.0
 40
8.0
 10
294.5330917149058
 20
22.74045124935748
 10
294.5330917149058
 20
23.170657981889
 10
294.183932569288
 20
23.52005954302123
 10
293.7534026160711
 20
23.52005954302123
 97
        0
 92
       22
 72
     1
 73
     1
 93
        2
 10
294.0279785982702
 20
19.90241201945986
 42
-1.0
 10
287.8042026671629
 20
19.90241201945986
 42
-1.0
 97
        0
 92
        6
 72
     1
 73
     1
 93
        2
 10
293.274260478601
 20
19.90241201945986
 42
-1.0
 10
288.5579207868318
 20
19.90241201945986
 42
-1.0
 97
        0
 75
     0
 76
     1
 47
0.0971708358577946
 98
        3
 10
293.4946053904651
 20
23.19073639681291
 10
293.4946053904651
 20
23.19073639681291
 10
293.4946053904651
 20
23.19073639681291
450
        0
451
        0
460
0.0
461
0.0
452
        0
462
0.0
453
        0
470

1001
ACAD
1010
0.0
1020
0.0
1030
0.0
  0
SPLINE
  5
BD8F
330
1F
100
AcDbEntity
  8
0
370
     0
100
AcDbSpline
210
0.0
220
0.0
230
1.0
 70
    24
 71
     3
 72
     8
 73
     4
 74
     0
 42
0.0000000001
 43
0.0000000001
 40
0.0
 40
0.0
 40
0.0
 40
0.0
 40
1.0
 40
1.0
 40
1.0
 40
1.0
 10
293.7534026160711
 20
23.52005954302131
 30
0.0
 10
293.7534026160711
 20
23.52005954302131
 30
0.0
 10
288.0787786493618
 20
23.52005954302131
 30
0.0
 10
288.0787786493618
 20
23.52005954302131
 30
0.0
  0
SPLINE
  5
BD90
330
1F
100
AcDbEntity
  8
0
370
     0
100
AcDbSpline
210
0.0
220
0.0
230
1.0
 70
     8
 71
     3
 72
     8
 73
     4
 74
     0
 42
0.0000000001
 43
0.0000000001
 40
1.0
 40
1.0
 40
1.0
 40
1.0
 40
2.0
 40
2.0
 40
2.0
 40
2.0
 10
288.0787786493618
 20
23.52005954302131
 30
0.0
 10
287.6482486961445
 20
23.52005954302131
 30
0.0
 10
287.2991703556981
 20
23.17065798188908
 30
0.0
 10
287.2991703556981
 20
22.74045124935749
 30
0.0
  0
SPLINE
  5
BD91
330
1F
100
AcDbEntity
  8
0
370
     0
100
AcDbSpline
210
0.0
220
0.0
230
1.0
 70
     8
 71
     3
 72
     8
 73
     4
 74
     0
 42
0.0000000001
 43
0.0000000001
 40
3.0
 40
3.0
 40
3.0
 40
3.0
 40
4.0
 40
4.0
 40
4.0
 40
4.0
 10
287.2991703556981
 20
17.06582728264805
 30
0.0
 10
287.2991703556981
 20
16.6352973294312
 30
0.0
 10
287.6482486961445
 20
16.28605737864198
 30
0.0
 10
288.0787786493618
 20
16.28605737864198
 30
0.0
  0
SPLINE
  5
BD92
330
1F
100
AcDbEntity
  8
0
370
     0
100
AcDbSpline
210
0.0
220
0.0
230
1.0
 70
    24
 71
     3
 72
     8
 73
     4
 74
     0
 42
0.0000000001
 43
0.0000000001
 40
4.0
 40
4.0
 40
4.0
 40
4.0
 40
5.0
 40
5.0
 40
5.0
 40
5.0
 10
288.0787786493618
 20
16.28605737864198
 30
0.0
 10
288.0787786493618
 20
16.28605737864198
 30
0.0
 10
293.7534026160711
 20
16.28605737864198
 30
0.0
 10
293.7534026160711
 20
16.28605737864198
 30
0.0
  0
SPLINE
  5
BD93
330
1F
100
AcDbEntity
  8
0
370
     0
100
AcDbSpline
210
0.0
220
0.0
230
1.0
 70
     8
 71
     3
 72
     8
 73
     4
 74
     0
 42
0.0000000001
 43
0.0000000001
 40
5.0
 40
5.0
 40
5.0
 40
5.0
 40
6.0
 40
6.0
 40
6.0
 40
6.0
 10
293.7534026160711
 20
16.28605737864198
 30
0.0
 10
294.183932569288
 20
16.28605737864198
 30
0.0
 10
294.5330917149058
 20
16.6352973294312
 30
0.0
 10
294.5330917149058
 20
17.06582728264805
 30
0.0
  0
SPLINE
  5
BD94
330
1F
100
AcDbEntity
  8
0
370
     0
100
AcDbSpline
210
0.0
220
0.0
230
1.0
 70
     8
 71
     3
 72
     8
 73
     4
 74
     0
 42
0.0000000001
 43
0.0000000001
 40
7.0
 40
7.0
 40
7.0
 40
7.0
 40
8.0
 40
8.0
 40
8.0
 40
8.0
 10
294.5330917149058
 20
22.74045124935749
 30
0.0
 10
294.5330917149058
 20
23.17065798188908
 30
0.0
 10
294.183932569288
 20
23.52005954302131
 30
0.0
 10
293.7534026160711
 20
23.52005954302131
 30
0.0
  0
HATCH
  5
BD95
330
1F
100
AcDbEntity
  8
0
 62
   158
100
AcDbHatch
 10
0.0
 20
0.0
 30
0.0
210
0.0
220
0.0
230
0.9999999999999998
  2
SOLID
 70
     1
 71
     0
 91
        1
 92
        7
 72
     0
 73
     1
 93
       13
 10
310.1210961218487
 20
15.11826104157474
 10
312.8861682819721
 20
15.1182610415748
 10
312.8861682819721
 20
18.59563078758608
 10
313.6212529261937
 20
18.59563078758608
 10
316.1930609952839
 20
15.1182610415748
 10
319.5546031100736
 20
15.11826104157474
 10
316.0061367548828
 20
19.96770259795057
 10
319.5195249425148
 20
24.79629642010645
 10
316.1738038057047
 20
24.79629642010645
 10
313.6425854914433
 20
21.36094536322347
 10
312.8861682819721
 20
21.36094536322347
 10
312.8861682819721
 20
24.79629642010645
 10
310.1210961218487
 20
24.79629642010658
 97
        0
 75
     0
 76
     1
 47
0.0110187284578925
 98
        1
 10
311.324493790671
 20
21.21800420971069
450
        0
451
        0
460
0.0
461
0.0
452
        0
462
0.0
453
        0
470

1001
ACAD
1010
0.0
1020
0.0
1030
0.0
  0
LINE
  5
BD96
330
1F
100
AcDbEntity
  8
0
370
     0
100
AcDbLine
 10
316.1738038057047
 20
24.79629642010653
 30
0.0
 11
313.6425854914433
 21
21.36094536322348
 31
0.0
  0
LINE
  5
BD97
330
1F
100
AcDbEntity
  8
0
370
     0
100
AcDbLine
 10
313.6425854914433
 20
21.36094536322348
 30
0.0
 11
312.8861682819721
 21
21.36094536322348
 31
0.0
  0
LINE
  5
BD98
330
1F
100
AcDbEntity
  8
0
370
     0
100
AcDbLine
 10
312.8861682819721
 20
21.36094536322348
 30
0.0
 11
312.8861682819721
 21
24.79629642010653
 31
0.0
  0
LINE
  5
BD99
330
1F
100
AcDbEntity
  8
0
370
     0
100
AcDbLine
 10
312.8861682819721
 20
24.79629642010653
 30
0.0
 11
310.1210961218487
 21
24.79629642010653
 31
0.0
  0
LINE
  5
BD9A
330
1F
100
AcDbEntity
  8
0
370
     0
100
AcDbLine
 10
310.1210961218487
 20
15.11826104157487
 30
0.0
 11
312.8861682819721
 21
15.11826104157487
 31
0.0
  0
LINE
  5
BD9B
330
1F
100
AcDbEntity
  8
0
370
     0
100
AcDbLine
 10
312.8861682819721
 20
15.11826104157487
 30
0.0
 11
312.8861682819721
 21
18.59563078758609
 31
0.0
  0
LINE
  5
BD9C
330
1F
100
AcDbEntity
  8
0
370
     0
100
AcDbLine
 10
312.8861682819721
 20
18.59563078758609
 30
0.0
 11
313.6212529261937
 21
18.59563078758609
 31
0.0
  0
LINE
  5
BD9D
330
1F
100
AcDbEntity
  8
0
370
     0
100
AcDbLine
 10
313.6212529261937
 20
18.59563078758609
 30
0.0
 11
316.1930609952839
 21
15.11826104157487
 31
0.0
  0
LINE
  5
BD9E
330
1F
100
AcDbEntity
  8
0
370
     0
100
AcDbLine
 10
319.5546031100736
 20
15.11826104157487
 30
0.0
 11
316.0061367548822
 21
19.96770259795057
 31
0.0
  0
LINE
  5
BD9F
330
1F
100
AcDbEntity
  8
0
370
     0
100
AcDbLine
 10
316.0061367548822
 20
19.96770259795057
 30
0.0
 11
319.5195249425148
 21
24.79629642010653
 31
0.0
  0
HATCH
  5
BDA0
330
1F
100
AcDbEntity
  8
0
 62
   158
100
AcDbHatch
 10
0.0
 20
0.0
 30
0.0
210
0.0
220
0.0
230
0.9999999999999998
  2
SOLID
 70
     1
 71
     0
 91
        1
 92
        7
 72
     0
 73
     1
 93
       12
 10
320.2718417530679
 20
15.1182610415748
 10
323.0369947183624
 20
15.1182610415748
 10
323.0369947183622
 20
20.08260755168148
 10
325.89410396871
 20
16.13107305989817
 10
328.7570311913988
 20
20.0821227206537
 10
328.7570311913988
 20
15.11826104157494
 10
331.5223457670356
 20
15.1182610415748
 10
331.5223457670358
 20
24.79629642010645
 10
328.7657013298449
 20
24.79629642010645
 10
325.8941039687106
 20
20.88888155190638
 10
323.0285799526606
 20
24.79629642010645
 10
320.271841753068
 20
24.79629642010645
 97
        0
 75
     0
 76
     1
 47
0.0110187284578925
 98
        1
 10
321.4637089093377
 20
21.38802759305403
450
        0
451
        0
460
0.0
461
0.0
452
        0
462
0.0
453
        0
470

1001
ACAD
1010
0.0
1020
0.0
1030
0.0
  0
LINE
  5
BDA1
330
1F
100
AcDbEntity
  8
0
370
     0
100
AcDbLine
 10
331.5223457670356
 20
15.11826104157487
 30
0.0
 11
328.7570311913988
 21
15.11826104157487
 31
0.0
  0
LINE
  5
BDA2
330
1F
100
AcDbEntity
  8
0
370
     0
100
AcDbLine
 10
328.7570311913988
 20
15.11826104157487
 30
0.0
 11
328.7570311913988
 21
20.08212272065357
 31
0.0
  0
LINE
  5
BDA3
330
1F
100
AcDbEntity
  8
0
370
     0
100
AcDbLine
 10
328.7570311913988
 20
20.08212272065357
 30
0.0
 11
325.89410396871
 21
16.13107305989797
 31
0.0
  0
LINE
  5
BDA4
330
1F
100
AcDbEntity
  8
0
370
     0
100
AcDbLine
 10
325.89410396871
 20
16.13107305989797
 30
0.0
 11
323.0369947183624
 21
20.08260755168107
 31
0.0
  0
LINE
  5
BDA5
330
1F
100
AcDbEntity
  8
0
370
     0
100
AcDbLine
 10
323.0369947183624
 20
20.08260755168107
 30
0.0
 11
323.0369947183624
 21
15.11826104157487
 31
0.0
  0
LINE
  5
BDA6
330
1F
100
AcDbEntity
  8
0
370
     0
100
AcDbLine
 10
323.0369947183624
 20
15.11826104157487
 30
0.0
 11
320.271841753068
 21
15.11826104157487
 31
0.0
  0
LINE
  5
BDA7
330
1F
100
AcDbEntity
  8
0
370
     0
100
AcDbLine
 10
320.271841753068
 20
15.11826104157487
 30
0.0
 11
320.271841753068
 21
24.79629642010653
 31
0.0
  0
LINE
  5
BDA8
330
1F
100
AcDbEntity
  8
0
370
     0
100
AcDbLine
 10
320.271841753068
 20
24.79629642010653
 30
0.0
 11
323.0285799526606
 21
24.79629642010653
 31
0.0
  0
LINE
  5
BDA9
330
1F
100
AcDbEntity
  8
0
370
     0
100
AcDbLine
 10
323.0285799526606
 20
24.79629642010653
 30
0.0
 11
325.89410396871
 21
20.88888155190653
 31
0.0
  0
LINE
  5
BDAA
330
1F
100
AcDbEntity
  8
0
370
     0
100
AcDbLine
 10
325.89410396871
 20
20.88888155190653
 30
0.0
 11
328.7657013298452
 21
24.79629642010653
 31
0.0
  0
HATCH
  5
BDAB
330
1F
100
AcDbEntity
  8
0
 62
   158
100
AcDbHatch
 10
0.0
 20
0.0
 30
0.0
210
0.0
220
0.0
230
0.9999999999999998
  2
SOLID
 70
     1
 71
     1
 91
        2
 92
        5
 93
        6
 72
     4
 94
        3
 73
     0
 74
     0
 95
        8
 96
        4
 40
3.0
 40
3.0
 40
3.0
 40
3.0
 40
7.0
 40
7.0
 40
7.0
 40
7.0
 10
307.3664882314213
 20
24.79629642010653
 10
307.3664882314213
 20
24.79629642010653
 10
299.7109254878502
 20
24.79629642010653
 10
299.7109254878502
 20
24.79629642010653
 72
     4
 94
        3
 73
     0
 74
     0
 95
        8
 96
        4
 40
7.0
 40
7.0
 40
7.0
 40
7.0
 40
12.0
 40
12.0
 40
12.0
 40
12.0
 10
299.7109254878502
 20
24.79629642010653
 10
299.7109254878502
 20
24.79629642010653
 10
299.7109254878502
 20
15.11826104157487
 10
299.7109254878502
 20
15.11826104157487
 72
     4
 94
        3
 73
     0
 74
     0
 95
        8
 96
        4
 40
12.0
 40
12.0
 40
12.0
 40
12.0
 40
19.0
 40
19.0
 40
19.0
 40
19.0
 10
299.7109254878502
 20
15.11826104157487
 10
299.7109254878502
 20
15.11826104157487
 10
307.3664882314213
 20
15.11826104157487
 10
307.3664882314213
 20
15.11826104157487
 72
     4
 94
        3
 73
     0
 74
     0
 95
        8
 96
        4
 40
12.0
 40
12.0
 40
12.0
 40
12.0
 40
12.99999999999996
 40
13.0
 40
13.0
 40
13.0
 10
307.3664882314213
 20
15.11826104157569
 10
308.4871347509769
 20
15.13862394476821
 10
309.3895669051676
 20
16.05172238158353
 10
309.3895669051676
 20
17.17701519849448
 72
     1
 10
309.3895669051676
 20
17.17701519849439
 11
309.3895669051676
 21
22.73754226318692
 72
     4
 94
        3
 73
     0
 74
     0
 95
        8
 96
        4
 40
0.0
 40
0.0
 40
0.0
 40
0.0
 40
1.0
 40
1.0
 40
1.0
 40
1.0
 10
309.3895669051676
 20
22.73754226318692
 10
309.3895669051676
 20
23.86283508009787
 10
308.4871347509769
 20
24.77585271174251
 10
307.3664882314213
 20
24.79629642010653
 97
        6
330
BDB8
330
BDAC
330
BDAD
330
BDAE
330
BDB9
330
BDBA
 92
       20
 93
        5
 72
     4
 94
        3
 73
     0
 74
     0
 95
        8
 96
        4
 40
23.00279176359329
 40
23.00279176359329
 40
23.00279176359329
 40
23.00279176359329
 40
23.00279276946732
 40
23.00279276946732
 40
23.00279276946732
 40
23.00279276946732
 10
305.1710186597626
 20
17.87387899664599
 10
305.1710163480103
 20
17.87387899664475
 10
305.1710140362538
 20
17.87387899664413
 10
305.1710117244931
 20
17.87387899664413
 72
     1
 10
305.1710117244931
 20
17.87387899664413
 11
302.4678363256621
 21
17.87387899664413
 72
     1
 10
302.4678363256621
 20
17.87387899664413
 11
302.4678363256621
 21
22.03421405132488
 72
     1
 10
302.4678363256621
 20
22.03421405132488
 11
306.0314293013312
 21
22.03421405132488
 72
     4
 94
        3
 73
     0
 74
     0
 95
       12
 96
        8
 40
0.0
 40
0.0
 40
0.0
 40
0.0
 40
22.00558553893464
 40
22.00558553893464
 40
22.00558553893464
 40
22.50418915420098
 40
23.00279176359329
 40
23.00279176359329
 40
23.00279176359329
 40
23.00279176359329
 10
305.1710117244931
 20
22.03421405132488
 10
306.3169328108331
 20
22.03421405132488
 10
306.5359651870743
 20
21.72918851655863
 10
306.5371796632581
 20
19.95404652398474
 10
306.5371796632581
 20
19.95404652398474
 10
306.5359651882993
 20
18.17890632198072
 10
306.3169332527049
 20
17.87387961199869
 10
305.1710186597626
 20
17.87387899664599
 97
        4
330
BDBB
330
BDBD
330
BDBC
330
BDBE
 75
     0
 76
     1
 47
0.0716887800264337
 98
        2
 10
305.6395840616949
 20
22.81309541752898
 10
305.6395840616949
 20
22.81309541752898
450
        0
451
        0
460
0.0
461
0.0
452
        0
462
0.0
453
        0
470

1001
ACAD
1010
0.0
1020
0.0
1030
0.0
  0
SPLINE
  5
BDAC
102
{ACAD_REACTORS
330
BDAB
102
}
330
1F
100
AcDbEntity
  8
0
370
     0
100
AcDbSpline
210
0.0
220
0.0
230
1.0
 70
    24
 71
     3
 72
     8
 73
     4
 74
     0
 42
0.0000000001
 43
0.0000000001
 40
3.0
 40
3.0
 40
3.0
 40
3.0
 40
7.0
 40
7.0
 40
7.0
 40
7.0
 10
307.3664882314213
 20
24.79629642010653
 30
0.0
 10
307.3664882314213
 20
24.79629642010653
 30
0.0
 10
299.7109254878502
 20
24.79629642010653
 30
0.0
 10
299.7109254878502
 20
24.79629642010653
 30
0.0
  0
SPLINE
  5
BDAD
102
{ACAD_REACTORS
330
BDAB
102
}
330
1F
100
AcDbEntity
  8
0
370
     0
100
AcDbSpline
210
0.0
220
0.0
230
1.0
 70
    24
 71
     3
 72
     8
 73
     4
 74
     0
 42
0.0000000001
 43
0.0000000001
 40
7.0
 40
7.0
 40
7.0
 40
7.0
 40
12.0
 40
12.0
 40
12.0
 40
12.0
 10
299.7109254878502
 20
24.79629642010653
 30
0.0
 10
299.7109254878502
 20
24.79629642010653
 30
0.0
 10
299.7109254878502
 20
15.11826104157487
 30
0.0
 10
299.7109254878502
 20
15.11826104157487
 30
0.0
  0
SPLINE
  5
BDAE
102
{ACAD_REACTORS
330
BDAB
102
}
330
1F
100
AcDbEntity
  8
0
370
     0
100
AcDbSpline
210
0.0
220
0.0
230
1.0
 70
    24
 71
     3
 72
     8
 73
     4
 74
     0
 42
0.0000000001
 43
0.0000000001
 40
12.0
 40
12.0
 40
12.0
 40
12.0
 40
19.0
 40
19.0
 40
19.0
 40
19.0
 10
299.7109254878502
 20
15.11826104157487
 30
0.0
 10
299.7109254878502
 20
15.11826104157487
 30
0.0
 10
307.3664882314213
 20
15.11826104157487
 30
0.0
 10
307.3664882314213
 20
15.11826104157487
 30
0.0
  0
LINE
  5
BDAF
330
1F
100
AcDbEntity
  8
0
100
AcDbLine
 10
294.5330917149058
 20
17.06582728264805
 30
0.0
 11
294.5330917149058
 21
22.74045124935749
 31
0.0
  0
LINE
  5
BDB0
330
1F
100
AcDbEntity
  8
0
100
AcDbLine
 10
287.2991703556981
 20
17.06582728264805
 30
0.0
 11
287.2991703556981
 21
22.74045124935749
 31
0.0
  0
LINE
  5
BDB1
330
1F
100
AcDbEntity
  8
0
100
AcDbLine
 10
316.1930609952839
 20
15.11826104157487
 30
0.0
 11
319.5546031100736
 21
15.11826104157487
 31
0.0
  0
LINE
  5
BDB2
330
1F
100
AcDbEntity
  8
0
100
AcDbLine
 10
316.1738038057047
 20
24.79629642010653
 30
0.0
 11
319.5195249425148
 21
24.79629642010653
 31
0.0
  0
LINE
  5
BDB3
330
1F
100
AcDbEntity
  8
0
100
AcDbLine
 10
331.5223457670356
 20
15.11826104157487
 30
0.0
 11
331.5223457670356
 21
24.79629710961922
 31
0.0
  0
LINE
  5
BDB4
330
1F
100
AcDbEntity
  8
0
100
AcDbLine
 10
328.7657013298452
 20
24.79629642010653
 30
0.0
 11
331.5223457670356
 21
24.79629642010653
 31
0.0
  0
CIRCLE
  5
BDB5
330
1F
100
AcDbEntity
  8
0
100
AcDbCircle
 10
290.9160906327165
 20
19.90241201945994
 30
0.0
 40
2.358169845884515
  0
CIRCLE
  5
BDB6
330
1F
100
AcDbEntity
  8
0
100
AcDbCircle
 10
290.9160906327165
 20
19.90241201945994
 30
0.0
 40
3.111887965553623
  0
LINE
  5
BDB7
330
1F
100
AcDbEntity
  8
0
100
AcDbLine
 10
310.1210961218487
 20
24.79629642010653
 30
0.0
 11
310.1210961218487
 21
15.11826104157487
 31
0.0
  0
SPLINE
  5
BDB8
102
{ACAD_REACTORS
330
BDAB
102
}
330
1F
100
AcDbEntity
  8
0
370
     0
100
AcDbSpline
210
0.0
220
0.0
230
1.0
 70
     8
 71
     3
 72
     8
 73
     4
 74
     0
 42
0.0000000001
 43
0.0000000001
 40
0.0
 40
0.0
 40
0.0
 40
0.0
 40
1.0
 40
1.0
 40
1.0
 40
1.0
 10
309.3895669051676
 20
22.73754226318692
 30
0.0
 10
309.3895669051676
 20
23.86283508009787
 30
0.0
 10
308.4871347509769
 20
24.77585271174251
 30
0.0
 10
307.3664882314213
 20
24.79629642010653
 30
0.0
  0
SPLINE
  5
BDB9
102
{ACAD_REACTORS
330
BDAB
102
}
330
1F
100
AcDbEntity
  8
0
370
     0
100
AcDbSpline
210
0.0
220
0.0
230
1.0
 70
     8
 71
     3
 72
     8
 73
     4
 74
     0
 42
0.0000000001
 43
0.0000000001
 40
12.0
 40
12.0
 40
12.0
 40
12.0
 40
12.99999999999996
 40
13.0
 40
13.0
 40
13.0
 10
307.3664882314213
 20
15.11826104157569
 30
0.0
 10
308.4871347509769
 20
15.13862394476821
 30
0.0
 10
309.3895669051676
 20
16.05172238158353
 30
0.0
 10
309.3895669051676
 20
17.17701519849448
 30
0.0
  0
LINE
  5
BDBA
102
{ACAD_REACTORS
330
BDAB
102
}
330
1F
100
AcDbEntity
  8
0
100
AcDbLine
 10
309.3895669051676
 20
22.73754226318692
 30
0.0
 11
309.3895669051676
 21
17.17701519849448
 31
0.0
  0
SPLINE
  5
BDBB
102
{ACAD_REACTORS
330
BDAB
102
}
330
1F
100
AcDbEntity
  8
0
370
     0
100
AcDbSpline
210
0.0
220
0.0
230
1.0
 70
     8
 71
     3
 72
    12
 73
     8
 74
     0
 42
0.0000000001
 43
0.0000000001
 40
0.0
 40
0.0
 40
0.0
 40
0.0
 40
22.00558553893464
 40
22.00558553893464
 40
22.00558553893464
 40
22.50418915420098
 40
23.00279276946732
 40
23.00279276946732
 40
23.00279276946732
 40
23.00279276946732
 10
305.1710117244931
 20
22.03421405132488
 30
0.0
 10
306.3169328108331
 20
22.03421405132488
 30
0.0
 10
306.5359651870743
 20
21.72918851655863
 30
0.0
 10
306.5371796632581
 20
19.95404652398474
 30
0.0
 10
306.5371796632581
 20
19.95404652398474
 30
0.0
 10
306.5359651870743
 20
18.17890453141085
 30
0.0
 10
306.3169328108331
 20
17.87387899664413
 30
0.0
 10
305.1710117244931
 20
17.87387899664413
 30
0.0
  0
LINE
  5
BDBC
102
{ACAD_REACTORS
330
BDAB
102
}
330
1F
100
AcDbEntity
  8
0
100
AcDbLine
 10
302.4678363256621
 20
17.87387899664413
 30
0.0
 11
302.4678363256621
 21
22.03421405132488
 31
0.0
  0
LINE
  5
BDBD
102
{ACAD_REACTORS
330
BDAB
102
}
330
1F
100
AcDbEntity
  8
0
100
AcDbLine
 10
302.4678363256621
 20
17.87387899664413
 30
0.0
 11
305.1710187885451
 21
17.87387899664413
 31
0.0
  0
LINE
  5
BDBE
102
{ACAD_REACTORS
330
BDAB
102
}
330
1F
100
AcDbEntity
  8
0
100
AcDbLine
 10
305.1710117244931
 20
22.03421405132488
 30
0.0
 11
302.4678363256621
 21
22.03421405132488
 31
0.0
  0
MTEXT
  5
BDBF
330
1F
100
AcDbEntity
  8
DKM7_TEXT
100
AcDbMText
 10
242.7409099658537
 20
64.32681838864285
 30
0.0
 40
3.779999999999998
 41
47.24999999999978
 71
     5
 72
     5
  1
NO.
 73
     1
 44
1.0
  0
MTEXT
  5
BDC0
330
1F
100
AcDbEntity
  8
DKM7_TEXT
100
AcDbMText
 10
425.1259099658605
 20
64.32681838864238
 30
0.0
 40
3.779999999999998
 41
47.24999999999978
 71
     5
 72
     5
  1
REMARKS
 73
     1
 44
1.0
  0
MTEXT
  5
BDC1
330
1F
100
AcDbEntity
  8
DKM7_TEXT
100
AcDbMText
 10
375.0409099658606
 20
64.32681838864263
 30
0.0
 40
3.779999999999998
 41
47.24999999999978
 71
     5
 72
     5
  1
Q'TY
 73
     1
 44
1.0
  0
MTEXT
  5
BDC2
330
1F
100
AcDbEntity
  8
DKM7_TEXT
100
AcDbMText
 10
375.04090996586
 20
46.37181838864171
 30
0.0
 40
3.779999999999998
 41
47.24999999999978
 71
     5
 72
     5
  1
TITLE
 73
     1
 44
1.0
  0
MTEXT
  5
BDC3
330
1F
100
AcDbEntity
  8
DKM7_TEXT
100
AcDbMText
 10
375.0409099658606
 20
26.52681838864046
 30
0.0
 40
3.779999999999998
 41
47.24999999999978
 71
     5
 72
     5
  1
SHE.NO.
 73
     1
 44
1.0
  0
MTEXT
  5
BDC4
330
1F
100
AcDbEntity
  8
DKM7_TEXT
100
AcDbMText
 10
375.0409099658606
 20
13.29681838864049
 30
0.0
 40
3.779999999999998
 41
47.24999999999978
 71
     5
 72
     5
  1
DWG.NO.
 73
     1
 44
1.0
  0
MTEXT
  5
BDC5
330
1F
100
AcDbEntity
  8
DKM7_TEXT
100
AcDbMText
 10
344.8009099658602
 20
64.32681838864353
 30
0.0
 40
3.779999999999998
 41
47.24999999999978
 71
     5
 72
     5
  1
METERIAL
 73
     1
 44
1.0
  0
MTEXT
  5
BDC6
330
1F
100
AcDbEntity
  8
DKM7_TEXT
100
AcDbMText
 10
291.880909965856
 20
64.32681838864353
 30
0.0
 40
3.779999999999998
 41
47.24999999999978
 71
     5
 72
     5
  1
NOMENCLATURE
 73
     1
 44
1.0
  0
MTEXT
  5
BDC7
330
1F
100
AcDbEntity
  8
DKM7_TEXT
100
AcDbMText
 10
304.1659099658614
 20
55.82181838864308
 30
0.0
 40
3.401999999999999
 41
47.24999999999978
 71
     5
 72
     5
  1
APPROV
 73
     1
 44
1.0
  0
MTEXT
  5
BDC8
330
1F
100
AcDbEntity
  8
DKM7_TEXT
100
AcDbMText
 10
326.8459099658612
 20
55.82181838864308
 30
0.0
 40
3.401999999999999
 41
47.24999999999978
 71
     5
 72
     5
  1
DESIGN
 73
     1
 44
1.0
  0
MTEXT
  5
BDC9
330
1F
100
AcDbEntity
  8
DKM7_TEXT
100
AcDbMText
 10
349.5259099658611
 20
55.82181838864308
 30
0.0
 40
3.401999999999999
 41
47.24999999999978
 71
     5
 72
     5
  1
DRAWN
 73
     1
 44
1.0
  0
MTEXT
  5
BDCA
330
1F
100
AcDbEntity
  8
DKM7_TEXT
100
AcDbMText
 10
242.7409099658535
 20
55.82181838864308
 30
0.0
 40
3.779999999999998
 41
47.24999999999978
 71
     5
 72
     5
  1
SCALE
 73
     1
 44
1.0
  0
MTEXT
  5
BDCB
330
1F
100
AcDbEntity
  8
DKM7_TEXT
100
AcDbMText
 10
242.7409099658527
 20
26.52681838864134
 30
0.0
 40
3.779999999999998
 41
47.24999999999978
 71
     5
 72
     5
  1
DATE
 73
     1
 44
1.0
  0
MTEXT
  5
BDD9
330
1F
100
AcDbEntity
  8
DKM7_TEXT
100
AcDbMText
 10
237.5434099658526
 20
46.3718183886426
 30
0.0
 40
3.779999999999998
 41
47.24999999999978
 71
     5
 72
     5
  1
N
 73
     1
 44
1.0
  0
MTEXT
  5
BDDA
330
1F
100
AcDbEntity
  8
DKM7_TEXT
100
AcDbMText
 10
247.9384099658529
 20
38.81181838864136
 30
0.0
 40
3.779999999999998
 41
47.24999999999978
 71
     5
 72
     5
  1
S
 73
     1
 44
1.0
  0
LINE
  5
BDDB
330
1F
100
AcDbEntity
  8
DKM7_TEXT
100
AcDbLine
 10
253.1359099658534
 20
50.15181838864284
 30
0.0
 11
232.3459099658529
 21
35.03181838864132
 31
0.0
  0
LINE
  5
BDDC
330
1F
100
AcDbEntity
  8
DKM5_DIM_LINE
100
AcDbLine
 10
255.0259099658534
 20
52.04181838864304
 30
0.0
 11
292.825909965861
 21
52.04181838864323
 31
0.0
  0
MTEXT
  5
BDDD
330
1F
100
AcDbEntity
  8
DKM7_TEXT
100
AcDbMText
 10
273.925909965857
 20
55.82181838864308
 30
0.0
 40
3.779999999999998
 41
47.24999999999978
 71
     5
 72
     5
  1
UNIT : mm
 73
     1
 44
1.0
  0
LINE
  5
BDDE
330
1F
100
AcDbEntity
  8
DKM7_TEXT
100
AcDbLine
 10
267.3706946705189
 20
44.77276384318733
 30
0.0
 11
267.3706946705189
 21
47.49894566136947
 31
0.0
  0
LINE
  5
BDDF
330
1F
100
AcDbEntity
  8
DKM7_TEXT
100
AcDbLine
 10
265.1897492159737
 20
42.59181838864214
 30
0.0
 11
262.4635673977916
 21
42.59181838864214
 31
0.0
  0
CIRCLE
  5
BDE0
330
1F
100
AcDbEntity
  8
DKM7_TEXT
100
AcDbCircle
 10
267.3706946705189
 20
42.59181838864214
 30
0.0
 40
3.816654545454496
  0
CIRCLE
  5
BDE1
330
1F
100
AcDbEntity
  8
DKM7_TEXT
100
AcDbCircle
 10
267.3706946705189
 20
42.59181838864214
 30
0.0
 40
2.726181818181781
  0
LINE
  5
BDE2
330
1F
100
AcDbEntity
  8
DKM7_TEXT
100
AcDbLine
 10
284.7223821694923
 20
46.40847293409687
 30
0.0
 11
274.9081276240381
 21
45.31800020682434
 31
0.0
  0
LINE
  5
BDE3
330
1F
100
AcDbEntity
  8
DKM7_TEXT
100
AcDbLine
 10
273.8176548967656
 20
42.59181838864214
 30
0.0
 11
286.903327624038
 21
42.59181838864214
 31
0.0
  0
LINE
  5
BDE4
330
1F
100
AcDbEntity
  8
DKM7_TEXT
100
AcDbLine
 10
274.9081276240381
 20
39.8656365704603
 30
0.0
 11
284.7223821694923
 21
38.77516384318769
 31
0.0
  0
LINE
  5
BDE5
330
1F
100
AcDbEntity
  8
DKM7_TEXT
100
AcDbLine
 10
267.3706946705189
 20
40.41087293409695
 30
0.0
 11
267.3706946705189
 21
37.68469111591509
 31
0.0
  0
LINE
  5
BDE6
330
1F
100
AcDbEntity
  8
DKM7_TEXT
100
AcDbLine
 10
266.2802219432461
 20
42.59181838864214
 30
0.0
 11
268.4611673977916
 21
42.59181838864214
 31
0.0
  0
LINE
  5
BDE7
330
1F
100
AcDbEntity
  8
DKM7_TEXT
100
AcDbLine
 10
269.551640125064
 20
42.59181838864214
 30
0.0
 11
272.2778219432463
 21
42.59181838864214
 31
0.0
  0
LINE
  5
BDE8
330
1F
100
AcDbEntity
  8
DKM7_TEXT
100
AcDbLine
 10
267.3706946705189
 20
41.50134566136963
 30
0.0
 11
267.3706946705189
 21
43.68229111591481
 31
0.0
  0
LINE
  5
BDE9
330
1F
100
AcDbEntity
  8
DKM7_TEXT
100
AcDbLine
 10
274.9081276240381
 20
45.31800020682434
 30
0.0
 11
274.9081276240381
 21
39.8656365704603
 31
0.0
  0
LINE
  5
BDEA
330
1F
100
AcDbEntity
  8
DKM7_TEXT
100
AcDbLine
 10
284.7223821694923
 20
46.40847293409687
 30
0.0
 11
284.7223821694923
 21
38.77516384318769
 31
0.0
  0
MTEXT
  5
BDEB
330
1F
100
AcDbEntity
  8
DKM7_TEXT
100
AcDbMText
 10
-44.01504457959477
 20
18.08863657045786
 30
0.0
 40
3.779999999999998
 41
47.24999999999978
 71
     5
 72
     5
  1
REV.
 73
     1
 44
1.0
  0
MTEXT
  5
BDEC
330
1F
100
AcDbEntity
  8
DKM7_TEXT
100
AcDbMText
 10
-6.215999125049222
 20
18.08863657045826
 30
0.0
 40
3.779999999999998
 41
47.24999999999978
 71
     5
 72
     5
  1
DESCRIPTION
 73
     1
 44
1.0
  0
MTEXT
  5
BDED
330
1F
100
AcDbEntity
  8
DKM7_TEXT
100
AcDbMText
 10
31.5840008749508
 20
18.08863657045826
 30
0.0
 40
3.779999999999998
 41
47.24999999999978
 71
     5
 72
     5
  1
DATE
 73
     1
 44
1.0
  0
MTEXT
  5
BDEE
330
1F
100
AcDbEntity
  8
DKM7_TEXT
100
AcDbMText
 10
50.48400087495081
 20
18.08863657045826
 30
0.0
 40
3.779999999999998
 41
47.24999999999978
 71
     5
 72
     5
  1
CHECK
 73
     1
 44
1.0
  0
LINE
  5
BDEF
330
1F
100
AcDbEntity
  8
DKM1_SOLIDLINE
100
AcDbLine
 10
360.8659099658614
 20
59.60181838864284
 30
0.0
 11
360.8659099658609
 21
78.50181838864258
 31
0.0
  0
LINE
  5
BDF0
330
1F
100
AcDbEntity
  8
DKM1_SOLIDLINE
100
AcDbLine
 10
389.2159099658608
 20
59.60181838864264
 30
0.0
 11
389.2159099658605
 21
78.50181838864236
 31
0.0
  0
MTEXT
  5
BDF1
330
1F
100
AcDbEntity
  8
DKM7_TEXT
100
AcDbMText
 10
242.7409099658537
 20
73.7768183886421
 30
0.0
 40
3.779999999999998
 41
47.24999999999978
 71
     5
 72
     5
  1
1
 73
     1
 44
1.0
  0
MTEXT
  5
BDF2
330
1F
100
AcDbEntity
  8
DKM7_TEXT
100
AcDbMText
 10
375.0409099658606
 20
73.77681838864264
 30
0.0
 40
3.779999999999998
 41
47.24999999999978
 71
     5
 72
     5
  1
LOT
 73
     1
 44
1.0
  0
MTEXT
  5
BDF5
330
1F
100
AcDbEntity
  8
DKM7_TEXT
100
AcDbMText
 10
425.1259099658604
 20
39.75681838864096
 30
0.0
 40
3.779999999999998
 41
56.99999999999949
 71
     5
 72
     5
  1
취부 PLATE
 73
     1
 44
1.0
1001
ACAD
1000
ACAD_MTEXT_COLUMN_INFO_BEGIN
1070
    75
1070
     2
1070
    79
1070
     0
1070
    76
1070
     1
1070
    78
1070
     0
1070
    48
1040
56.99999999999949
1070
    49
1040
12.5
1070
    50
1070
     1
1040
0.0
1000
ACAD_MTEXT_COLUMN_INFO_END
  0
MTEXT
  5
BDF6
330
1F
100
AcDbEntity
  8
DKM7_TEXT
100
AcDbMText
 10
425.1259099658603
 20
52.98681838864229
 30
0.0
 40
3.779999999999998
 41
68.49839167690412
 71
     5
 72
     5
  1
9DBK
 73
     1
 44
1.0
  0
MTEXT
  5
D91B
330
1F
100
AcDbEntity
  8
DKM7_TEXT
100
AcDbMText
 10
291.8809099658564
 20
73.77681838864346
 30
0.0
 40
3.779999999999998
 41
47.24999999999978
 71
     5
 72
     5
  1
9DBK
 73
     1
 44
1.0
  0
MTEXT
  5
D977
330
1F
100
AcDbEntity
  8
DKM7_TEXT
100
AcDbMText
 10
-40.23071625472807
 20
71.24888999765428
 30
0.0
 40
5.669999999999998
 41
70.87499999999967
 71
     4
 72
     5
  1
- 중량 : 263g\P- 재질 :  AL
 73
     1
 44
1.0
  0
LINE
  5
DA3A
330
1F
100
AcDbEntity
  8
DKM1_SOLIDLINE
370
    50
100
AcDbLine
 10
200.4450008749514
 20
6.681818388639611
 30
0.0
 11
200.4450008749514
 21
13.36363657045786
 31
0.0
  0
MTEXT
  5
DA3B
330
1F
100
AcDbEntity
  8
DKM7_TEXT
100
AcDbMText
 10
167.8711372385876
 20
10.02272747954914
 30
0.0
 40
3.34090909090909
 41
6.681818181818181
 71
     5
 72
     5
  1
4
 73
     1
 44
1.0
  0
LINE
  5
DF09
330
1F
100
AcDbEntity
  8
DKM2_OUTLINE
370
    15
100
AcDbLine
 10
193.8898584723956
 20
112.1851684041432
 30
0.0
 11
123.8898584723956
 21
112.1851684041433
 31
0.0
  0
LINE
  5
DF0A
330
1F
100
AcDbEntity
  8
DKM2_OUTLINE
370
    15
100
AcDbLine
 10
123.8898584723956
 20
112.1851684041433
 30
0.0
 11
102.8898584723956
 21
112.1851684041433
 31
0.0
  0
LINE
  5
DF0B
330
1F
100
AcDbEntity
  8
DKM2_OUTLINE
370
    15
100
AcDbLine
 10
112.8898584723958
 20
118.6851684041434
 30
0.0
 11
102.8898584723956
 21
112.1851684041433
 31
0.0
  0
LINE
  5
DF0C
330
1F
100
AcDbEntity
  8
DKM2_OUTLINE
370
    15
100
AcDbLine
 10
112.8898584723958
 20
118.6851684041434
 30
0.0
 11
204.8898584723953
 21
118.6851684041433
 31
0.0
  0
LINE
  5
DF0D
330
1F
100
AcDbEntity
  8
DKM2_OUTLINE
370
    15
100
AcDbLine
 10
214.8898584723958
 20
112.1851684041432
 30
0.0
 11
204.8898584723953
 21
118.6851684041433
 31
0.0
  0
LINE
  5
DF0E
330
1F
100
AcDbEntity
  8
DKM2_OUTLINE
370
    15
100
AcDbLine
 10
214.8898584723958
 20
112.1851684041432
 30
0.0
 11
193.8898584723956
 21
112.1851684041432
 31
0.0
  0
LINE
  5
DF0F
330
1F
100
AcDbEntity
  8
DKM2_OUTLINE
370
    15
100
AcDbLine
 10
102.8898584723956
 20
120.1851684041433
 30
0.0
 11
102.8898584723956
 21
112.1851684041433
 31
0.0
  0
LINE
  5
DF10
330
1F
100
AcDbEntity
  8
DKM2_OUTLINE
370
    15
100
AcDbLine
 10
102.8898584723956
 20
120.1851684041433
 30
0.0
 11
102.8898584723956
 21
185.1851684041433
 31
0.0
  0
LINE
  5
DF11
102
{ACAD_REACTORS
330
E49A
330
E4F7
102
}
330
1F
100
AcDbEntity
  8
DKM2_OUTLINE
370
    15
100
AcDbLine
 10
102.8898584723956
 20
185.1851684041433
 30
0.0
 11
112.8898584723956
 21
192.1851684041433
 31
0.0
  0
LINE
  5
DF12
330
1F
100
AcDbEntity
  8
DKM2_OUTLINE
370
    15
100
AcDbLine
 10
112.8898584723956
 20
192.1851684041433
 30
0.0
 11
112.8898584723958
 21
118.6851684041434
 31
0.0
  0
ARC
  5
DF13
102
{ACAD_REACTORS
330
E50F
102
}
330
1F
100
AcDbEntity
  8
DKM2_OUTLINE
370
    15
100
AcDbCircle
 10
199.8898584723956
 20
218.1851684041433
 30
0.0
 40
5.0
100
AcDbArc
 50
0.0
 51
90.0
  0
LINE
  5
DF14
102
{ACAD_REACTORS
330
E4DF
102
}
330
1F
100
AcDbEntity
  8
DKM2_OUTLINE
370
    15
100
AcDbLine
 10
204.8898584723957
 20
218.1851684041433
 30
0.0
 11
204.8898584723957
 21
192.1851684041433
 31
0.0
  0
LINE
  5
DF15
330
1F
100
AcDbEntity
  8
DKM2_OUTLINE
370
    15
100
AcDbLine
 10
204.8898584723953
 20
118.6851684041433
 30
0.0
 11
204.8898584723957
 21
192.1851684041433
 31
0.0
  0
LINE
  5
DF16
330
1F
100
AcDbEntity
  8
DKM2_OUTLINE
370
    15
100
AcDbLine
 10
112.8898584723956
 20
192.1851684041433
 30
0.0
 11
112.8898584723956
 21
218.1851684041433
 31
0.0
  0
ARC
  5
DF17
102
{ACAD_REACTORS
330
E4DF
102
}
330
1F
100
AcDbEntity
  8
DKM2_OUTLINE
370
    15
100
AcDbCircle
 10
117.8898584723956
 20
218.1851684041433
 30
0.0
 40
5.0
100
AcDbArc
 50
90.0
 51
180.0
  0
LINE
  5
DF18
102
{ACAD_REACTORS
330
E50F
102
}
330
1F
100
AcDbEntity
  8
DKM2_OUTLINE
370
    15
100
AcDbLine
 10
117.8898584723956
 20
223.1851684041433
 30
0.0
 11
199.8898584723956
 21
223.1851684041433
 31
0.0
  0
CIRCLE
  5
DF19
330
1F
100
AcDbEntity
  8
DKM2_OUTLINE
370
    15
100
AcDbCircle
 10
122.1203058506953
 20
140.4156157824426
 30
0.0
 40
2.5
  0
CIRCLE
  5
DF1A
330
1F
100
AcDbEntity
  8
DKM2_OUTLINE
370
    15
100
AcDbCircle
 10
122.1203058506953
 20
213.954721025844
 30
0.0
 40
2.5
  0
CIRCLE
  5
DF1B
330
1F
100
AcDbEntity
  8
DKM2_OUTLINE
370
    15
100
AcDbCircle
 10
158.8898584723956
 20
177.1851684041432
 30
0.0
 40
40.0
  0
CIRCLE
  5
DF1C
330
1F
100
AcDbEntity
  8
DKM2_OUTLINE
370
    15
100
AcDbCircle
 10
195.6594110940958
 20
213.954721025844
 30
0.0
 40
2.5
  0
CIRCLE
  5
DF1D
330
1F
100
AcDbEntity
  8
DKM2_OUTLINE
370
    15
100
AcDbCircle
 10
195.6594110940958
 20
140.4156157824426
 30
0.0
 40
2.499999999999943
  0
LINE
  5
DF1E
330
1F
100
AcDbEntity
  8
DKM2_OUTLINE
370
    15
100
AcDbLine
 10
214.8898584723958
 20
185.1851684041433
 30
0.0
 11
214.8898584723958
 21
120.1851684041432
 31
0.0
  0
LINE
  5
DF1F
330
1F
100
AcDbEntity
  8
DKM2_OUTLINE
370
    15
100
AcDbLine
 10
214.8898584723958
 20
120.1851684041432
 30
0.0
 11
214.8898584723958
 21
112.1851684041432
 31
0.0
  0
LINE
  5
DF20
102
{ACAD_REACTORS
330
E4F7
102
}
330
1F
100
AcDbEntity
  8
DKM2_OUTLINE
370
    15
100
AcDbLine
 10
204.8898584723957
 20
192.1851684041433
 30
0.0
 11
214.8898584723958
 21
185.1851684041433
 31
0.0
  0
LINE
  5
DF21
330
1F
100
AcDbEntity
  8
DKM2_OUTLINE
370
    15
100
AcDbLine
 10
133.8898584723956
 20
112.1851684041432
 30
0.0
 11
133.8898584723956
 21
111.1851684041432
 31
0.0
  0
LINE
  5
DF23
330
1F
100
AcDbEntity
  8
DKM2_OUTLINE
370
    15
100
AcDbLine
 10
133.8898584723956
 20
111.1851684041432
 30
0.0
 11
123.8898584723956
 21
111.1851684041433
 31
0.0
  0
LINE
  5
DF25
102
{ACAD_REACTORS
330
E44E
102
}
330
1F
100
AcDbEntity
  8
DKM2_OUTLINE
370
    15
100
AcDbLine
 10
183.8898584723956
 20
111.1851684041432
 30
0.0
 11
183.8898584723956
 21
112.1851684041432
 31
0.0
  0
LINE
  5
DF26
102
{ACAD_REACTORS
330
E44E
102
}
330
1F
100
AcDbEntity
  8
DKM2_OUTLINE
370
    15
100
AcDbLine
 10
193.8898584723956
 20
111.1851684041432
 30
0.0
 11
183.8898584723956
 21
111.1851684041432
 31
0.0
  0
LINE
  5
DF27
330
1F
100
AcDbEntity
  8
DKM2_OUTLINE
370
    15
100
AcDbLine
 10
231.8898584723958
 20
117.1851684041433
 30
0.0
 11
231.8898584723958
 21
111.1851684041432
 31
0.0
  0
LINE
  5
DF29
102
{ACAD_REACTORS
330
E46A
102
}
330
1F
100
AcDbEntity
  8
DKM2_OUTLINE
370
    15
100
AcDbLine
 10
216.8898584723958
 20
120.1851684041432
 30
0.0
 11
228.8898584723958
 21
120.1851684041432
 31
0.0
  0
LINE
  5
DF2A
102
{ACAD_REACTORS
330
E432
330
E46A
330
E50F
102
}
330
1F
100
AcDbEntity
  8
DKM2_OUTLINE
370
    15
100
AcDbLine
 10
231.8898584723958
 20
111.1851684041432
 30
0.0
 11
216.8898584723958
 21
111.1851684041432
 31
0.0
  0
LINE
  5
DF2C
330
1F
100
AcDbEntity
  8
DKM2_OUTLINE
370
    15
100
AcDbLine
 10
85.88985847239564
 20
111.1851684041433
 30
0.0
 11
85.88985847239564
 21
117.1851684041433
 31
0.0
  0
LINE
  5
DF2D
330
1F
100
AcDbEntity
  8
DKM2_OUTLINE
370
    15
100
AcDbLine
 10
88.88985847239565
 20
120.1851684041433
 30
0.0
 11
100.8898584723956
 21
120.1851684041433
 31
0.0
  0
LINE
  5
DF2E
102
{ACAD_REACTORS
330
E432
330
E482
330
E49A
102
}
330
1F
100
AcDbEntity
  8
DKM2_OUTLINE
370
    15
100
AcDbLine
 10
100.8898584723956
 20
111.1851684041433
 30
0.0
 11
85.88985847239564
 21
111.1851684041433
 31
0.0
  0
LINE
  5
DF2F
330
1F
100
AcDbEntity
  8
DKM2_OUTLINE
370
    15
100
AcDbLine
 10
216.8898584723958
 20
120.1851684041432
 30
0.0
 11
214.8898584723958
 21
120.1851684041432
 31
0.0
  0
LINE
  5
DF30
330
1F
100
AcDbEntity
  8
DKM2_OUTLINE
370
    15
100
AcDbLine
 10
216.8898584723958
 20
111.1851684041432
 30
0.0
 11
193.8898584723956
 21
111.1851684041432
 31
0.0
  0
LINE
  5
DF31
330
1F
100
AcDbEntity
  8
DKM2_OUTLINE
370
    15
100
AcDbLine
 10
102.8898584723956
 20
120.1851684041433
 30
0.0
 11
100.8898584723956
 21
120.1851684041433
 31
0.0
  0
LINE
  5
DF32
330
1F
100
AcDbEntity
  8
DKM2_OUTLINE
370
    15
100
AcDbLine
 10
123.8898584723956
 20
111.1851684041433
 30
0.0
 11
100.8898584723956
 21
111.1851684041433
 31
0.0
  0
LINE
  5
DF38
330
1F
100
AcDbEntity
  8
DKM2_OUTLINE
370
    15
100
AcDbLine
 10
204.8898584723957
 20
288.3774170064545
 30
0.0
 11
204.8898584723957
 21
279.3774170064545
 31
0.0
  0
LINE
  5
DF39
330
1F
100
AcDbEntity
  8
DKM2_OUTLINE
370
    15
100
AcDbLine
 10
204.8898584723957
 20
279.3774170064545
 30
0.0
 11
199.8898584723956
 21
279.3774170064545
 31
0.0
  0
LINE
  5
DF3B
330
1F
100
AcDbEntity
  8
DKM2_OUTLINE
370
    15
100
AcDbLine
 10
199.8898584723956
 20
288.3774170064545
 30
0.0
 11
204.8898584723957
 21
288.3774170064545
 31
0.0
  0
LINE
  5
DF3C
330
1F
100
AcDbEntity
  8
DKM2_OUTLINE
370
    15
100
AcDbLine
 10
117.8898584723956
 20
279.3774170064545
 30
0.0
 11
199.8898584723956
 21
279.3774170064545
 31
0.0
  0
LINE
  5
DF3E
330
1F
100
AcDbEntity
  8
DKM2_OUTLINE
370
    15
100
AcDbLine
 10
117.8898584723956
 20
288.3774170064545
 30
0.0
 11
199.8898584723956
 21
288.3774170064545
 31
0.0
  0
LINE
  5
DF3F
330
1F
100
AcDbEntity
  8
DKM2_OUTLINE
370
    15
100
AcDbLine
 10
117.8898584723956
 20
279.3774170064545
 30
0.0
 11
112.8898584723956
 21
279.3774170064545
 31
0.0
  0
LINE
  5
DF40
330
1F
100
AcDbEntity
  8
DKM2_OUTLINE
370
    15
100
AcDbLine
 10
112.8898584723956
 20
279.3774170064545
 30
0.0
 11
112.8898584723956
 21
288.3774170064545
 31
0.0
  0
LINE
  5
DF41
330
1F
100
AcDbEntity
  8
DKM2_OUTLINE
370
    15
100
AcDbLine
 10
112.8898584723956
 20
288.3774170064545
 30
0.0
 11
117.8898584723956
 21
288.3774170064545
 31
0.0
  0
LINE
  5
DF42
330
1F
100
AcDbEntity
  8
DKM2_OUTLINE
370
    15
100
AcDbLine
 10
214.8898584723958
 20
288.3774170064545
 30
0.0
 11
214.8898584723958
 21
280.8774170064545
 31
0.0
  0
LINE
  5
DF43
102
{ACAD_REACTORS
330
E632
102
}
330
1F
100
AcDbEntity
  8
DKM2_OUTLINE
370
    15
100
AcDbLine
 10
204.8898584723957
 20
279.3774170064545
 30
0.0
 11
214.8898584723958
 21
280.8774170064545
 31
0.0
  0
LINE
  5
DF44
330
1F
100
AcDbEntity
  8
DKM2_OUTLINE
370
    15
100
AcDbLine
 10
204.8898584723957
 20
288.3774170064545
 30
0.0
 11
214.8898584723958
 21
288.3774170064545
 31
0.0
  0
LINE
  5
DF45
330
1F
100
AcDbEntity
  8
DKM2_OUTLINE
370
    15
100
AcDbLine
 10
102.8898584723956
 20
280.8774170064545
 30
0.0
 11
112.8898584723956
 21
279.3774170064545
 31
0.0
  0
LINE
  5
DF46
330
1F
100
AcDbEntity
  8
DKM2_OUTLINE
370
    15
100
AcDbLine
 10
102.8898584723956
 20
288.3774170064545
 30
0.0
 11
102.8898584723956
 21
280.8774170064545
 31
0.0
  0
LINE
  5
DF47
330
1F
100
AcDbEntity
  8
DKM2_OUTLINE
370
    15
100
AcDbLine
 10
102.8898584723956
 20
288.3774170064545
 30
0.0
 11
112.8898584723956
 21
288.3774170064545
 31
0.0
  0
LINE
  5
DF48
330
1F
100
AcDbEntity
  8
DKM2_OUTLINE
370
    15
100
AcDbLine
 10
214.8898584723958
 20
314.3774170064544
 30
0.0
 11
204.8898584723957
 21
314.3774170064544
 31
0.0
  0
LINE
  5
DF49
330
1F
100
AcDbEntity
  8
DKM2_OUTLINE
370
    15
100
AcDbLine
 10
204.8898584723957
 20
288.3774170064545
 30
0.0
 11
204.8898584723957
 21
314.3774170064544
 31
0.0
  0
LINE
  5
DF4A
330
1F
100
AcDbEntity
  8
DKM2_OUTLINE
370
    15
100
AcDbLine
 10
214.8898584723958
 20
314.3774170064544
 30
0.0
 11
214.8898584723958
 21
288.3774170064545
 31
0.0
  0
LINE
  5
DF4B
330
1F
100
AcDbEntity
  8
DKM2_OUTLINE
370
    15
100
AcDbLine
 10
112.8898584723956
 20
314.3774170064544
 30
0.0
 11
102.8898584723956
 21
314.3774170064544
 31
0.0
  0
LINE
  5
DF4C
330
1F
100
AcDbEntity
  8
DKM2_OUTLINE
370
    15
100
AcDbLine
 10
112.8898584723956
 20
314.3774170064544
 30
0.0
 11
112.8898584723956
 21
288.3774170064545
 31
0.0
  0
LINE
  5
DF4D
330
1F
100
AcDbEntity
  8
DKM2_OUTLINE
370
    15
100
AcDbLine
 10
102.8898584723956
 20
288.3774170064545
 30
0.0
 11
102.8898584723956
 21
314.3774170064544
 31
0.0
  0
LINE
  5
DF4E
330
1F
100
AcDbEntity
  8
DKM2_OUTLINE
370
    15
100
AcDbLine
 10
112.8898584723956
 20
314.3774170064544
 30
0.0
 11
112.8898584723956
 21
344.3774170064545
 31
0.0
  0
LINE
  5
DF4F
330
1F
100
AcDbEntity
  8
DKM2_OUTLINE
370
    15
100
AcDbLine
 10
102.8898584723956
 20
280.8774170064545
 30
0.0
 11
100.8898584723956
 21
280.8774170064545
 31
0.0
  0
ARC
  5
DF50
330
1F
100
AcDbEntity
  8
DKM2_OUTLINE
370
    15
100
AcDbCircle
 10
100.8898584723956
 20
295.8774170064544
 30
0.0
 40
15.0
100
AcDbArc
 50
180.0
 51
270.0
  0
LINE
  5
DF51
330
1F
100
AcDbEntity
  8
DKM2_OUTLINE
370
    15
100
AcDbLine
 10
85.88985847239564
 20
334.3774170064544
 30
0.0
 11
85.88985847239564
 21
295.8774170064544
 31
0.0
  0
ARC
  5
DF52
330
1F
100
AcDbEntity
  8
DKM2_OUTLINE
370
    15
100
AcDbCircle
 10
95.88985847239564
 20
334.3774170064544
 30
0.0
 40
10.00000000000005
100
AcDbArc
 50
90.0
 51
180.0
  0
ARC
  5
DF53
330
1F
100
AcDbEntity
  8
DKM2_OUTLINE
370
    15
100
AcDbCircle
 10
96.38985847239565
 20
336.3774170064544
 30
0.0
 40
3.250000000000028
100
AcDbArc
 50
270.0
 51
0.0
  0
ARC
  5
DF54
330
1F
100
AcDbEntity
  8
DKM2_OUTLINE
370
    15
100
AcDbCircle
 10
96.38985847239565
 20
336.3774170064544
 30
0.0
 40
3.250000000000028
100
AcDbArc
 50
0.0
 51
90.0
  0
LINE
  5
DF55
330
1F
100
AcDbEntity
  8
DKM2_OUTLINE
370
    15
100
AcDbLine
 10
93.38985847239564
 20
339.6274170064544
 30
0.0
 11
96.38985847239565
 21
339.6274170064544
 31
0.0
  0
ARC
  5
DF56
330
1F
100
AcDbEntity
  8
DKM2_OUTLINE
370
    15
100
AcDbCircle
 10
93.38985847239564
 20
336.3774170064544
 30
0.0
 40
3.25
100
AcDbArc
 50
90.0
 51
180.0
  0
ARC
  5
DF57
330
1F
100
AcDbEntity
  8
DKM2_OUTLINE
370
    15
100
AcDbCircle
 10
93.38985847239564
 20
336.3774170064544
 30
0.0
 40
3.25
100
AcDbArc
 50
180.0
 51
270.0
  0
LINE
  5
DF58
330
1F
100
AcDbEntity
  8
DKM2_OUTLINE
370
    15
100
AcDbLine
 10
93.38985847239564
 20
333.1274170064544
 30
0.0
 11
96.38985847239565
 21
333.1274170064544
 31
0.0
  0
LINE
  5
DF59
330
1F
100
AcDbEntity
  8
DKM2_OUTLINE
370
    15
100
AcDbLine
 10
93.38985847239564
 20
299.6274170064545
 30
0.0
 11
96.38985847239565
 21
299.6274170064545
 31
0.0
  0
ARC
  5
DF5A
102
{ACAD_REACTORS
330
E699
102
}
330
1F
100
AcDbEntity
  8
DKM2_OUTLINE
370
    15
100
AcDbCircle
 10
93.38985847239564
 20
296.3774170064545
 30
0.0
 40
3.25
100
AcDbArc
 50
90.0
 51
180.0
  0
ARC
  5
DF5B
102
{ACAD_REACTORS
330
E6BE
102
}
330
1F
100
AcDbEntity
  8
DKM2_OUTLINE
370
    15
100
AcDbCircle
 10
93.38985847239564
 20
296.3774170064545
 30
0.0
 40
3.250000000000028
100
AcDbArc
 50
180.0
 51
270.0
  0
LINE
  5
DF5C
102
{ACAD_REACTORS
330
E699
102
}
330
1F
100
AcDbEntity
  8
DKM2_OUTLINE
370
    15
100
AcDbLine
 10
93.38985847239564
 20
293.1274170064544
 30
0.0
 11
96.38985847239565
 21
293.1274170064544
 31
0.0
  0
ARC
  5
DF5D
330
1F
100
AcDbEntity
  8
DKM2_OUTLINE
370
    15
100
AcDbCircle
 10
96.38985847239565
 20
296.3774170064545
 30
0.0
 40
3.250000000000028
100
AcDbArc
 50
270.0
 51
0.0
  0
ARC
  5
DF5E
102
{ACAD_REACTORS
330
E6BE
102
}
330
1F
100
AcDbEntity
  8
DKM2_OUTLINE
370
    15
100
AcDbCircle
 10
96.38985847239565
 20
296.3774170064545
 30
0.0
 40
3.250000000000028
100
AcDbArc
 50
0.0
 51
90.0
  0
LINE
  5
DF5F
330
1F
100
AcDbEntity
  8
DKM2_OUTLINE
370
    15
100
AcDbLine
 10
112.8898584723956
 20
344.3774170064545
 30
0.0
 11
95.88985847239564
 21
344.3774170064545
 31
0.0
  0
LINE
  5
DF60
330
1F
100
AcDbEntity
  8
DKM2_OUTLINE
370
    15
100
AcDbLine
 10
119.8898584723956
 20
344.3774170064545
 30
0.0
 11
119.8898584723956
 21
288.3774170064545
 31
0.0
  0
LINE
  5
DF61
330
1F
100
AcDbEntity
  8
DKM2_OUTLINE
370
    15
100
AcDbLine
 10
112.8898584723956
 20
344.3774170064545
 30
0.0
 11
119.8898584723956
 21
344.3774170064545
 31
0.0
  0
LINE
  5
DF62
330
1F
100
AcDbEntity
  8
DKM2_OUTLINE
370
    15
100
AcDbLine
 10
197.8898584723956
 20
288.3774170064544
 30
0.0
 11
197.8898584723956
 21
344.3774170064545
 31
0.0
  0
LINE
  5
DF63
330
1F
100
AcDbEntity
  8
DKM2_OUTLINE
370
    15
100
AcDbLine
 10
197.8898584723956
 20
344.3774170064545
 30
0.0
 11
204.8898584723957
 21
344.3774170064545
 31
0.0
  0
LINE
  5
DF64
330
1F
100
AcDbEntity
  8
DKM2_OUTLINE
370
    15
100
AcDbLine
 10
204.8898584723957
 20
344.3774170064545
 30
0.0
 11
204.8898584723957
 21
314.3774170064544
 31
0.0
  0
ARC
  5
DF65
330
1F
100
AcDbEntity
  8
DKM2_OUTLINE
370
    15
100
AcDbCircle
 10
216.8898584723958
 20
295.8774170064544
 30
0.0
 40
15.0
100
AcDbArc
 50
270.0
 51
0.0
  0
LINE
  5
DF66
330
1F
100
AcDbEntity
  8
DKM2_OUTLINE
370
    15
100
AcDbLine
 10
216.8898584723958
 20
280.8774170064545
 30
0.0
 11
214.8898584723958
 21
280.8774170064545
 31
0.0
  0
ARC
  5
DF67
330
1F
100
AcDbEntity
  8
DKM2_OUTLINE
370
    15
100
AcDbCircle
 10
221.8898584723957
 20
334.3774170064544
 30
0.0
 40
10.00000000000005
100
AcDbArc
 50
0.0
 51
90.0
  0
LINE
  5
DF68
330
1F
100
AcDbEntity
  8
DKM2_OUTLINE
370
    15
100
AcDbLine
 10
231.8898584723958
 20
334.3774170064544
 30
0.0
 11
231.8898584723958
 21
295.8774170064544
 31
0.0
  0
LINE
  5
DF69
330
1F
100
AcDbEntity
  8
DKM2_OUTLINE
370
    15
100
AcDbLine
 10
224.3898584723956
 20
299.6274170064545
 30
0.0
 11
221.3898584723956
 21
299.6274170064545
 31
0.0
  0
ARC
  5
DF6A
330
1F
100
AcDbEntity
  8
DKM2_OUTLINE
370
    15
100
AcDbCircle
 10
221.3898584723956
 20
296.3774170064545
 30
0.0
 40
3.25
100
AcDbArc
 50
90.0
 51
180.0
  0
ARC
  5
DF6B
330
1F
100
AcDbEntity
  8
DKM2_OUTLINE
370
    15
100
AcDbCircle
 10
221.3898584723956
 20
296.3774170064545
 30
0.0
 40
3.250000000000028
100
AcDbArc
 50
180.0
 51
270.0
  0
LINE
  5
DF6C
330
1F
100
AcDbEntity
  8
DKM2_OUTLINE
370
    15
100
AcDbLine
 10
224.3898584723956
 20
293.1274170064544
 30
0.0
 11
221.3898584723956
 21
293.1274170064544
 31
0.0
  0
ARC
  5
DF6D
330
1F
100
AcDbEntity
  8
DKM2_OUTLINE
370
    15
100
AcDbCircle
 10
224.3898584723956
 20
296.3774170064545
 30
0.0
 40
3.250000000000028
100
AcDbArc
 50
270.0
 51
0.0
  0
ARC
  5
DF6E
330
1F
100
AcDbEntity
  8
DKM2_OUTLINE
370
    15
100
AcDbCircle
 10
224.3898584723956
 20
296.3774170064545
 30
0.0
 40
3.25
100
AcDbArc
 50
0.0
 51
90.0
  0
LINE
  5
DF6F
330
1F
100
AcDbEntity
  8
DKM2_OUTLINE
370
    15
100
AcDbLine
 10
224.3898584723956
 20
339.6274170064544
 30
0.0
 11
221.3898584723956
 21
339.6274170064544
 31
0.0
  0
ARC
  5
DF70
330
1F
100
AcDbEntity
  8
DKM2_OUTLINE
370
    15
100
AcDbCircle
 10
221.3898584723956
 20
336.3774170064544
 30
0.0
 40
3.25
100
AcDbArc
 50
90.0
 51
180.0
  0
ARC
  5
DF71
330
1F
100
AcDbEntity
  8
DKM2_OUTLINE
370
    15
100
AcDbCircle
 10
221.3898584723956
 20
336.3774170064544
 30
0.0
 40
3.25
100
AcDbArc
 50
180.0
 51
270.0
  0
LINE
  5
DF72
330
1F
100
AcDbEntity
  8
DKM2_OUTLINE
370
    15
100
AcDbLine
 10
224.3898584723956
 20
333.1274170064544
 30
0.0
 11
221.3898584723956
 21
333.1274170064544
 31
0.0
  0
ARC
  5
DF73
330
1F
100
AcDbEntity
  8
DKM2_OUTLINE
370
    15
100
AcDbCircle
 10
224.3898584723956
 20
336.3774170064544
 30
0.0
 40
3.25
100
AcDbArc
 50
270.0
 51
0.0
  0
ARC
  5
DF74
330
1F
100
AcDbEntity
  8
DKM2_OUTLINE
370
    15
100
AcDbCircle
 10
224.3898584723956
 20
336.3774170064544
 30
0.0
 40
3.25
100
AcDbArc
 50
0.0
 51
90.0
  0
LINE
  5
DF75
330
1F
100
AcDbEntity
  8
DKM2_OUTLINE
370
    15
100
AcDbLine
 10
221.8898584723957
 20
344.3774170064545
 30
0.0
 11
204.8898584723957
 21
344.3774170064545
 31
0.0
  0
ARC
  5
DF76
102
{ACAD_REACTORS
330
E67D
102
}
330
1F
100
AcDbEntity
  8
DKM2_OUTLINE
370
    15
100
AcDbCircle
 10
141.8898584723956
 20
309.3774170064544
 30
0.0
 40
8.0
100
AcDbArc
 50
180.0
 51
270.0
  0
LINE
  5
DF77
330
1F
100
AcDbEntity
  8
DKM2_OUTLINE
370
    15
100
AcDbLine
 10
175.8898584723956
 20
301.3774170064545
 30
0.0
 11
141.8898584723956
 21
301.3774170064545
 31
0.0
  0
ARC
  5
DF78
330
1F
100
AcDbEntity
  8
DKM2_OUTLINE
370
    15
100
AcDbCircle
 10
175.8898584723956
 20
309.3774170064544
 30
0.0
 40
8.0
100
AcDbArc
 50
270.0
 51
0.0
  0
LINE
  5
DF79
102
{ACAD_REACTORS
330
E602
102
}
330
1F
100
AcDbEntity
  8
DKM2_OUTLINE
370
    15
100
AcDbLine
 10
183.8898584723956
 20
334.3774170064544
 30
0.0
 11
183.8898584723956
 21
309.3774170064544
 31
0.0
  0
ARC
  5
DF7A
330
1F
100
AcDbEntity
  8
DKM2_OUTLINE
370
    15
100
AcDbCircle
 10
193.8898584723956
 20
334.3774170064544
 30
0.0
 40
10.00000000000005
100
AcDbArc
 50
90.0
 51
180.0
  0
ARC
  5
DF7B
102
{ACAD_REACTORS
330
E602
102
}
330
1F
100
AcDbEntity
  8
DKM2_OUTLINE
370
    15
100
AcDbCircle
 10
123.8898584723956
 20
334.3774170064544
 30
0.0
 40
10.00000000000005
100
AcDbArc
 50
0.0
 51
90.0
  0
LINE
  5
DF7C
330
1F
100
AcDbEntity
  8
DKM2_OUTLINE
370
    15
100
AcDbLine
 10
133.8898584723956
 20
334.3774170064544
 30
0.0
 11
133.8898584723956
 21
309.3774170064544
 31
0.0
  0
LINE
  5
DF7D
330
1F
100
AcDbEntity
  8
DKM2_OUTLINE
370
    15
100
AcDbLine
 10
197.8898584723956
 20
344.3774170064545
 30
0.0
 11
193.8898584723956
 21
344.3774170064545
 31
0.0
  0
LINE
  5
DF7E
102
{ACAD_REACTORS
330
E67D
102
}
330
1F
100
AcDbEntity
  8
DKM2_OUTLINE
370
    15
100
AcDbLine
 10
123.8898584723956
 20
344.3774170064545
 30
0.0
 11
119.8898584723956
 21
344.3774170064545
 31
0.0
  0
LINE
  5
DF7F
102
{ACAD_REACTORS
330
E570
102
}
330
1F
100
AcDbEntity
  8
DKM2_OUTLINE
370
    15
100
AcDbLine
 10
370.0476970516901
 20
120.1851684041432
 30
0.0
 11
370.0476970516901
 21
111.1851684041432
 31
0.0
  0
LINE
  5
DF81
330
1F
100
AcDbEntity
  8
DKM2_OUTLINE
370
    15
100
AcDbLine
 10
360.0476970516901
 20
120.1851684041432
 30
0.0
 11
370.0476970516901
 21
120.1851684041432
 31
0.0
  0
LINE
  5
DF82
102
{ACAD_REACTORS
330
E54F
102
}
330
1F
100
AcDbEntity
  8
DKM2_OUTLINE
370
    15
100
AcDbLine
 10
370.0476970516901
 20
111.1851684041432
 30
0.0
 11
360.0476970516901
 21
111.1851684041432
 31
0.0
  0
LINE
  5
DF84
330
1F
100
AcDbEntity
  8
DKM2_OUTLINE
370
    15
100
AcDbLine
 10
360.0476970516901
 20
120.1851684041432
 30
0.0
 11
321.5476970516901
 21
120.1851684041432
 31
0.0
  0
LINE
  5
DF85
330
1F
100
AcDbEntity
  8
DKM2_OUTLINE
370
    15
100
AcDbLine
 10
360.0476970516901
 20
111.1851684041432
 30
0.0
 11
321.5476970516901
 21
111.1851684041432
 31
0.0
  0
LINE
  5
DF86
330
1F
100
AcDbEntity
  8
DKM2_OUTLINE
370
    15
100
AcDbLine
 10
306.5476970516901
 20
111.1851684041432
 30
0.0
 11
306.5476970516901
 21
120.1851684041432
 31
0.0
  0
LINE
  5
DF87
330
1F
100
AcDbEntity
  8
DKM2_OUTLINE
370
    15
100
AcDbLine
 10
306.5476970516901
 20
120.1851684041432
 30
0.0
 11
321.5476970516901
 21
120.1851684041432
 31
0.0
  0
LINE
  5
DF88
330
1F
100
AcDbEntity
  8
DKM2_OUTLINE
370
    15
100
AcDbLine
 10
321.5476970516901
 20
111.1851684041432
 30
0.0
 11
306.5476970516901
 21
111.1851684041432
 31
0.0
  0
LINE
  5
DF89
102
{ACAD_REACTORS
330
E570
102
}
330
1F
100
AcDbEntity
  8
DKM2_OUTLINE
370
    15
100
AcDbLine
 10
340.0476970516901
 20
120.1851684041432
 30
0.0
 11
314.0476970516901
 21
185.1851684041433
 31
0.0
  0
LINE
  5
DF8A
330
1F
100
AcDbEntity
  8
DKM2_OUTLINE
370
    15
100
AcDbLine
 10
306.5476970516901
 20
185.1851684041433
 30
0.0
 11
306.5476970516901
 21
120.1851684041432
 31
0.0
  0
LINE
  5
DF8B
330
1F
100
AcDbEntity
  8
DKM2_OUTLINE
370
    15
100
AcDbLine
 10
314.0476970516901
 20
185.1851684041433
 30
0.0
 11
306.5476970516901
 21
185.1851684041433
 31
0.0
  0
LINE
  5
DF8C
330
1F
100
AcDbEntity
  8
DKM2_OUTLINE
370
    15
100
AcDbLine
 10
314.0476970516901
 20
192.1851684041433
 30
0.0
 11
314.0476970516901
 21
185.1851684041433
 31
0.0
  0
LINE
  5
DF8D
330
1F
100
AcDbEntity
  8
DKM2_OUTLINE
370
    15
100
AcDbLine
 10
305.0476970516901
 20
192.1851684041433
 30
0.0
 11
306.5476970516901
 21
185.1851684041433
 31
0.0
  0
LINE
  5
DF8F
330
1F
100
AcDbEntity
  8
DKM2_OUTLINE
370
    15
100
AcDbLine
 10
305.0476970516901
 20
118.6851684041433
 30
0.0
 11
305.0476970516901
 21
192.1851684041433
 31
0.0
  0
LINE
  5
DF90
102
{ACAD_REACTORS
330
E54F
102
}
330
1F
100
AcDbEntity
  8
DKM2_OUTLINE
370
    15
100
AcDbLine
 10
306.5476970516901
 20
112.1851684041432
 30
0.0
 11
305.0476970516901
 21
118.6851684041433
 31
0.0
  0
LINE
  5
DF92
330
1F
100
AcDbEntity
  8
DKM2_OUTLINE
370
    15
100
AcDbLine
 10
305.0476970516901
 20
218.1851684041433
 30
0.0
 11
305.0476970516901
 21
223.1851684041433
 31
0.0
  0
LINE
  5
DF93
102
{ACAD_REACTORS
330
E5EA
102
}
330
1F
100
AcDbEntity
  8
DKM2_OUTLINE
370
    15
100
AcDbLine
 10
305.0476970516901
 20
223.1851684041433
 30
0.0
 11
314.0476970516901
 21
223.1851684041433
 31
0.0
  0
LINE
  5
DF94
102
{ACAD_REACTORS
330
E5CE
330
E5EA
102
}
330
1F
100
AcDbEntity
  8
DKM2_OUTLINE
370
    15
100
AcDbLine
 10
314.0476970516901
 20
223.1851684041433
 30
0.0
 11
314.0476970516901
 21
218.1851684041433
 31
0.0
  0
LINE
  5
DF95
330
1F
100
AcDbEntity
  8
DKM2_OUTLINE
370
    15
100
AcDbLine
 10
305.0476970516901
 20
218.1851684041433
 30
0.0
 11
305.0476970516901
 21
192.1851684041433
 31
0.0
  0
LINE
  5
DF96
330
1F
100
AcDbEntity
  8
DKM2_OUTLINE
370
    15
100
AcDbLine
 10
314.0476970516901
 20
218.1851684041433
 30
0.0
 11
314.0476970516901
 21
192.1851684041433
 31
0.0
  0
ARC
  5
E127
102
{ACAD_REACTORS
330
E537
102
}
330
1F
100
AcDbEntity
  8
DKM5_DIM_LINE
100
AcDbCircle
 10
122.1203058506953
 20
213.954721025844
 30
0.0
 40
3.0
100
AcDbArc
 50
270.0
 51
180.0
  0
ARC
  5
E12A
330
1F
100
AcDbEntity
  8
DKM5_DIM_LINE
100
AcDbCircle
 10
195.6594110940958
 20
213.954721025844
 30
0.0
 40
3.0
100
AcDbArc
 50
270.0
 51
180.0
  0
ARC
  5
E12B
330
1F
100
AcDbEntity
  8
DKM5_DIM_LINE
100
AcDbCircle
 10
195.6594110940958
 20
140.4156157824426
 30
0.0
 40
3.0
100
AcDbArc
 50
270.0
 51
180.0
  0
ARC
  5
E12C
330
1F
100
AcDbEntity
  8
DKM5_DIM_LINE
100
AcDbCircle
 10
122.1203058506953
 20
140.4156157824426
 30
0.0
 40
3.0
100
AcDbArc
 50
270.0
 51
180.0
  0
LINE
  5
E1CB
330
1F
100
AcDbEntity
  8
DKM3_CENTER
100
AcDbLine
 10
158.8898584723956
 20
347.7429956543544
 30
0.0
 11
158.8898584723956
 21
269.0988134493677
 31
0.0
  0
LINE
  5
E1CD
330
1F
100
AcDbEntity
  8
DKM5_DIM_LINE
100
AcDbLine
 10
87.76485847239575
 20
336.3774170064544
 30
0.0
 11
102.0148584723957
 21
336.3774170064544
 31
0.0
  0
LINE
  5
E1CE
330
1F
100
AcDbEntity
  8
DKM5_DIM_LINE
100
AcDbLine
 10
87.76485847239564
 20
296.3774170064545
 30
0.0
 11
102.0148584723956
 21
296.3774170064545
 31
0.0
  0
LINE
  5
E1CF
102
{ACAD_REACTORS
330
E64A
102
}
330
1F
100
AcDbEntity
  8
DKM5_DIM_LINE
100
AcDbLine
 10
215.7648584723956
 20
336.3774170064544
 30
0.0
 11
230.0148584723956
 21
336.3774170064544
 31
0.0
  0
LINE
  5
E1D0
102
{ACAD_REACTORS
330
E632
330
E64A
102
}
330
1F
100
AcDbEntity
  8
DKM5_DIM_LINE
100
AcDbLine
 10
215.7648584723956
 20
296.3774170064545
 30
0.0
 11
230.0148584723956
 21
296.3774170064545
 31
0.0
  0
LINE
  5
E1D1
330
1F
100
AcDbEntity
  8
DKM3_CENTER
100
AcDbLine
 10
94.88985847239575
 20
346.6024170064545
 30
0.0
 11
94.88985847239575
 21
286.1524170064545
 31
0.0
  0
LINE
  5
E1D2
330
1F
100
AcDbEntity
  8
DKM3_CENTER
100
AcDbLine
 10
222.8898584723958
 20
346.6024170064545
 30
0.0
 11
222.8898584723958
 21
286.1524170064545
 31
0.0
  0
LINE
  5
E1D3
330
1F
100
AcDbEntity
  8
DKM3_CENTER
100
AcDbLine
 10
158.8898584723957
 20
234.2851684041433
 30
0.0
 11
158.8898584723957
 21
101.0851684041433
 31
0.0
  0
LINE
  5
E1D4
102
{ACAD_REACTORS
330
E482
102
}
330
1F
100
AcDbEntity
  8
DKM3_CENTER
100
AcDbLine
 10
98.88985847239576
 20
177.1851684041433
 30
0.0
 11
218.8898584723958
 21
177.1851684041433
 31
0.0
  0
LINE
  5
E1D5
330
1F
100
AcDbEntity
  8
DKM4_HIDDEN
100
AcDbLine
 10
99.63985847239577
 20
120.1851684041433
 30
0.0
 11
99.63985847239564
 21
111.1851684041433
 31
0.0
  0
LINE
  5
E1D6
330
1F
100
AcDbEntity
  8
DKM4_HIDDEN
100
AcDbLine
 10
90.13985847239565
 20
120.1851684041433
 30
0.0
 11
90.13985847239565
 21
111.1851684041433
 31
0.0
  0
LINE
  5
E1D8
330
1F
100
AcDbEntity
  8
DKM3_CENTER
100
AcDbLine
 10
94.87813815332742
 20
106.6851684041433
 30
0.0
 11
94.87813815332742
 21
124.6851684041433
 31
0.0
  0
LINE
  5
E1D9
330
1F
100
AcDbEntity
  8
DKM4_HIDDEN
100
AcDbLine
 10
218.139858472396
 20
120.1851684041412
 30
0.0
 11
218.1398584723957
 21
111.1851684041412
 31
0.0
  0
LINE
  5
E1DA
330
1F
100
AcDbEntity
  8
DKM4_HIDDEN
100
AcDbLine
 10
227.6398584723961
 20
120.1851684041409
 30
0.0
 11
227.6398584723958
 21
111.1851684041408
 31
0.0
  0
LINE
  5
E1DB
330
1F
100
AcDbEntity
  8
DKM3_CENTER
100
AcDbLine
 10
222.9015787914637
 20
106.685168404141
 30
0.0
 11
222.9015787914644
 21
124.685168404141
 31
0.0
  0
LINE
  5
E3AD
330
1F
100
AcDbEntity
  8
DKM3_CENTER
100
AcDbLine
 10
191.4167704069766
 20
209.7120803387247
 30
0.0
 11
199.902051781215
 21
218.1973617129633
 31
0.0
  0
LINE
  5
E3AE
330
1F
100
AcDbEntity
  8
DKM3_CENTER
100
AcDbLine
 10
126.3629465378145
 20
209.7120803387259
 30
0.0
 11
117.8776651635764
 21
218.1973617129649
 31
0.0
  0
LINE
  5
E3AF
330
1F
100
AcDbEntity
  8
DKM3_CENTER
100
AcDbLine
 10
191.4167704069766
 20
144.6582564695619
 30
0.0
 11
199.902051781215
 21
136.1729750953233
 31
0.0
  0
LINE
  5
E3B0
330
1F
100
AcDbEntity
  8
DKM3_CENTER
100
AcDbLine
 10
126.3629465378145
 20
144.6582564695606
 30
0.0
 11
117.8776651635764
 21
136.1729750953217
 31
0.0
  0
ARC
  5
E3B3
102
{ACAD_REACTORS
330
E525
102
}
330
1F
100
AcDbEntity
  8
DKM3_CENTER
100
AcDbCircle
 10
158.8898584723957
 20
177.1851684041433
 30
0.0
 40
51.99999999999988
100
AcDbArc
 50
13.04787070009499
 51
53.27099400634004
  0
ARC
  5
E3B5
330
1F
100
AcDbEntity
  8
DKM3_CENTER
100
AcDbCircle
 10
158.8898584723957
 20
177.1851684041433
 30
0.0
 40
51.99999999999988
100
AcDbArc
 50
195.5739184542222
 51
233.2709940063401
  0
ARC
  5
E3B7
330
1F
100
AcDbEntity
  8
DKM5_DIM_LINE
100
AcDbCircle
 10
158.8898584723957
 20
177.1851684041433
 30
0.0
 40
51.99999999999988
100
AcDbArc
 50
306.7290059936599
 51
323.270994006341
  0
ARC
  5
E3BB
330
1F
100
AcDbEntity
  8
DKM5_DIM_LINE
100
AcDbCircle
 10
158.8898584723957
 20
177.1851684041433
 30
0.0
 40
51.99999999999988
100
AcDbArc
 50
126.7290059936599
 51
143.270994006341
  0
LINE
  5
E414
102
{ACAD_REACTORS
330
E588
102
}
330
1F
100
AcDbEntity
  8
DKM4_HIDDEN
100
AcDbLine
 10
311.0476970516899
 20
137.1851684041432
 30
0.0
 11
305.0476970516901
 21
137.1851684041432
 31
0.0
  0
LINE
  5
E415
330
1F
100
AcDbEntity
  8
DKM4_HIDDEN
100
AcDbLine
 10
314.0476970516901
 20
135.5351684041432
 30
0.0
 11
311.0476970516901
 21
135.5351684041433
 31
0.0
  0
LINE
  5
E416
330
1F
100
AcDbEntity
  8
DKM4_HIDDEN
100
AcDbLine
 10
314.0476970516901
 20
218.8351684041433
 30
0.0
 11
311.0476970516901
 21
218.8351684041433
 31
0.0
  0
LINE
  5
E417
102
{ACAD_REACTORS
330
E588
102
}
330
1F
100
AcDbEntity
  8
DKM4_HIDDEN
100
AcDbLine
 10
311.0476970516899
 20
217.1851684041433
 30
0.0
 11
305.0476970516901
 21
217.1851684041433
 31
0.0
  0
LINE
  5
E419
102
{ACAD_REACTORS
330
E5A0
330
E5CE
102
}
330
1F
100
AcDbEntity
  8
DKM4_HIDDEN
100
AcDbLine
 10
311.0476970516901
 20
218.8351684041433
 30
0.0
 11
311.0476970516901
 21
135.5351684041433
 31
0.0
  0
LINE
  5
E41A
330
1F
100
AcDbEntity
  8
DKM4_HIDDEN
100
AcDbLine
 10
314.0476970516901
 20
185.1851684041433
 30
0.0
 11
314.0476970516901
 21
135.5351684041432
 31
0.0
  0
DIMENSION
  5
E41B
102
{ACAD_XDICTIONARY
360
E428
102
}
102
{ACAD_REACTORS
330
E432
102
}
330
1F
100
AcDbEntity
  8
DKM5_DIM_LINE
100
AcDbDimension
  2
*D18
 10
231.8898584723958
 20
91.38535119398261
 30
0.0
 11
158.8898584723957
 21
94.33535119398262
 31
0.0
 70
    32
 71
     5
 42
146.0000000000001
  3
DKM
100
AcDbAlignedDimension
 13
85.88985847239564
 23
111.1851684041433
 33
0.0
 14
231.8898584723958
 24
111.1851684041432
 34
0.0
100
AcDbRotatedDimension
1001
ACAD
1000
DSTYLE
1002
{
1070
    50
1040
1.570796326794897
1002
}
  0
DIMENSION
  5
E433
102
{ACAD_XDICTIONARY
360
E442
102
}
102
{ACAD_REACTORS
330
E44E
102
}
330
1F
100
AcDbEntity
  8
DKM5_DIM_LINE
100
AcDbDimension
  2
*D19
 10
177.0842803647146
 20
111.1851684041432
 30
0.0
 11
174.1342803647145
 21
102.5685017374766
 31
0.0
 70
    32
 71
     5
  3
DKM
100
AcDbAlignedDimension
 13
183.8898584723956
 23
112.1851684041432
 33
0.0
 14
183.8898584723956
 24
111.1851684041432
 34
0.0
 50
90.0
100
AcDbRotatedDimension
1001
ACAD
1000
DSTYLE
1002
{
1070
    50
1040
1.570796326794897
1002
}
  0
DIMENSION
  5
E44F
102
{ACAD_XDICTIONARY
360
E45E
102
}
102
{ACAD_REACTORS
330
E46A
102
}
330
1F
100
AcDbEntity
  8
DKM5_DIM_LINE
100
AcDbDimension
  2
*D20
 10
243.6978620877384
 20
120.1851684041432
 30
0.0
 11
240.7478620877383
 21
115.6851684041433
 31
0.0
 70
    32
 71
     5
 42
9.0
  3
DKM
100
AcDbAlignedDimension
 13
231.8898584723958
 23
111.1851684041432
 33
0.0
 14
228.8898584723958
 24
120.1851684041432
 34
0.0
 50
90.0
100
AcDbRotatedDimension
1001
ACAD
1000
DSTYLE
1002
{
1070
    50
1040
1.570796326794897
1002
}
  0
DIMENSION
  5
E46B
102
{ACAD_XDICTIONARY
360
E478
102
}
102
{ACAD_REACTORS
330
E482
102
}
330
1F
100
AcDbEntity
  8
DKM5_DIM_LINE
100
AcDbDimension
  2
*D21
 10
73.69786208773837
 20
177.1851684041433
 30
0.0
 11
70.74786208773834
 21
144.1851684041433
 31
0.0
 70
    32
  1
<>%%P0.5
 71
     5
 42
66.00000000000001
  3
DKM
100
AcDbAlignedDimension
 13
85.88985847239564
 23
111.1851684041433
 33
0.0
 14
98.88985847239576
 24
177.1851684041433
 34
0.0
 50
90.0
100
AcDbRotatedDimension
1001
ACAD
1000
DSTYLE
1002
{
1070
    50
1040
1.570796326794897
1002
}
  0
DIMENSION
  5
E483
102
{ACAD_XDICTIONARY
360
E490
102
}
102
{ACAD_REACTORS
330
E49A
102
}
330
1F
100
AcDbEntity
  8
DKM5_DIM_LINE
100
AcDbDimension
  2
*D22
 10
63.69786208773837
 20
185.1851684041433
 30
0.0
 11
60.74786208773833
 21
148.1851684041433
 31
0.0
 70
    32
 71
     5
 42
73.99999999999998
  3
DKM
100
AcDbAlignedDimension
 13
85.88985847239564
 23
111.1851684041433
 33
0.0
 14
102.8898584723956
 24
185.1851684041433
 34
0.0
 50
90.0
100
AcDbRotatedDimension
1001
ACAD
1000
DSTYLE
1002
{
1070
    50
1040
1.570796326794897
1002
}
  0
DIMENSION
  5
E4C8
102
{ACAD_XDICTIONARY
360
E4D5
102
}
102
{ACAD_REACTORS
330
E4DF
102
}
330
1F
100
AcDbEntity
  8
DKM5_DIM_LINE
100
AcDbDimension
  2
*D23
 10
204.8898584723957
 20
242.6825688809967
 30
0.0
 11
158.8898584723956
 21
245.6325688809967
 31
0.0
 70
    32
 71
     5
 42
92.0
  3
DKM
100
AcDbAlignedDimension
 13
112.8898584723956
 23
218.1851684041433
 33
0.0
 14
204.8898584723957
 24
218.1851684041433
 34
0.0
100
AcDbRotatedDimension
1001
ACAD
1000
DSTYLE
1002
{
1070
    50
1040
1.570796326794897
1002
}
  0
DIMENSION
  5
E4E0
102
{ACAD_XDICTIONARY
360
E4ED
102
}
102
{ACAD_REACTORS
330
E4F7
102
}
330
1F
100
AcDbEntity
  8
DKM5_DIM_LINE
100
AcDbDimension
  2
*D24
 10
214.8898584723958
 20
252.6825688809967
 30
0.0
 11
158.8898584723957
 21
255.6325688809967
 31
0.0
 70
    32
 71
     5
 42
112.0000000000001
  3
DKM
100
AcDbAlignedDimension
 13
102.8898584723956
 23
185.1851684041433
 33
0.0
 14
214.8898584723958
 24
185.1851684041433
 34
0.0
100
AcDbRotatedDimension
1001
ACAD
1000
DSTYLE
1002
{
1070
    50
1040
1.570796326794897
1002
}
  0
DIMENSION
  5
E4F8
102
{ACAD_XDICTIONARY
360
E505
102
}
102
{ACAD_REACTORS
330
E50F
102
}
330
1F
100
AcDbEntity
  8
DKM5_DIM_LINE
100
AcDbDimension
  2
*D25
 10
253.6978620877384
 20
223.1851684041433
 30
0.0
 11
250.7478620877383
 21
167.1851684041433
 31
0.0
 70
    32
 71
     5
 42
112.0
  3
DKM
100
AcDbAlignedDimension
 13
231.8898584723958
 23
111.1851684041432
 33
0.0
 14
199.8898584723956
 24
223.1851684041433
 34
0.0
 50
90.0
100
AcDbRotatedDimension
1001
ACAD
1000
DSTYLE
1002
{
1070
    50
1040
1.570796326794897
1002
}
  0
DIMENSION
  5
E510
102
{ACAD_XDICTIONARY
360
E51C
102
}
102
{ACAD_REACTORS
330
E525
102
}
330
1F
100
AcDbEntity
  8
DKM5_DIM_LINE
100
AcDbDimension
  2
*D26
 10
117.7450864048285
 20
145.3872481654248
 30
0.0
 11
228.7091613198556
 21
231.1436304760835
 31
0.0
 70
   163
  1
<>%%P0.3
 71
     5
 42
103.9999999999996
  3
DKM
100
AcDbDiametricDimension
 15
200.0346305399633
 25
208.9830886428619
 35
0.0
 40
0.0
1001
ACAD
1000
DSTYLE
1002
{
1070
    50
1040
1.570796326794897
1070
   288
1070
     1
1002
}
1001
ACAD_DSTYLE_DIMRADIAL_EXTENSION
1070
   387
1070
     1
1070
   388
1040
0.2277283040911551
1070
   390
1040
0.9297542412207988
  0
MULTILEADER
  5
E52E
102
{ACAD_XDICTIONARY
360
E533
102
}
102
{ACAD_REACTORS
330
E537
102
}
330
1F
100
AcDbEntity
  8
DKM5_DIM_LINE @ 1
 92
      576
310
40020000140000000C00000016000000020000C30C00000013000000993A00000C00000016000000020000C3AC0000000B0000003C5261180E7F60408CD8B4E18E236D40000000000000000000000000000000000000000000000000000000000000F03F000000000000F03F00000000000000000000000000000000342D4D
310
365441500007000000010000000000000000000C40000000000000F03F0000000000000000000000000000F03F0000000000000000000000000000000000000000726F6D616E732E73687800007768677478742E736878003B0C000000100000000D0000000C00000016000000000000C00C00000012000000FF7F00000C00
310
000013000000010000000C0000001400000001000000540000000700000003000000F955480504135F40F06AA7DD37786B40000000000000000040904F17B3875E40B6D91B138D1E6B4000000000000000009916A29752D15E409C068391F6896B4000000000000000000C00000013000000891300003C0000000600000002
310
0000004936754E2BF25E40C638953717816B4000000000000000003C5261180E4F604026724E7B280D6D4000000000000000000C00000016000000000000C00C00000012000000FF7F00000C00000017000000000000000C000000130000009A3A00003C00000006000000020000003C5261180E4F604026724E7B280D6D40
310
000000000000000092A7B66D6374634026724E7B280D6D4000000000000000000C00000016000000000000C00C00000012000000FF7F00000C00000017000000FFFFFFFF
100
AcDbMLeader
300
CONTEXT_DATA{
 40
1.0
 10
130.4704706097417
 20
232.4111916095873
 30
0.0
 41
3.5
140
3.5
145
2.0
174
     5
175
     5
176
     0
177
     0
290
     1
304
4-M6TAP
 11
0.0
 21
0.0
 31
1.0
340
11
 12
132.4704706097417
 22
236.6111916095873
 32
0.0
 13
1.0
 23
0.0
 33
0.0
 42
0.0
 43
0.0
 44
0.0
 45
1.0
170
     1
 90
-1023410174
171
     1
172
     5
 91
-1073741824
141
0.0
 92
        0
291
     0
292
     0
173
     0
293
     0
142
0.0
143
0.0
294
     0
295
     0
296
     0
110
122.1203058506953
120
216.954721025844
130
0.0
111
1.0
121
0.0
131
0.0
112
0.0
122
1.0
132
0.0
297
     0
302
LEADER{
290
     1
291
     1
 10
130.1104706097417
 20
232.4111916095873
 30
0.0
 11
1.0
 21
0.0
 31
0.0
 90
        0
 40
0.36
304
LEADER_LINE{
 10
122.1203058506953
 20
216.954721025844
 30
0.0
 91
        0
305
}
303
}
301
}
340
59DB
 90
   279552
170
     1
 91
-1056964608
341
14
171
    -2
290
     1
291
     0
 41
0.36
 42
3.5
172
     2
343
11
173
     5
 95
        5
174
     1
175
     0
 92
-1023410174
292
     0
 93
-1056964608
 10
1.0
 20
1.0
 30
1.0
 43
0.0
176
     0
293
     0
294
     0
178
     0
179
     1
 45
1.0
1001
ACAD_MLEADERVER
1070
     2
  0
DIMENSION
  5
E538
102
{ACAD_XDICTIONARY
360
E545
102
}
102
{ACAD_REACTORS
330
E54F
102
}
330
1F
100
AcDbEntity
  8
DKM5_DIM_LINE
100
AcDbDimension
  2
*D27
 10
370.0476970516901
 20
92.68256888099671
 30
0.0
 11
337.5476970516901
 21
95.63256888099671
 31
0.0
 70
    32
 71
     5
 42
65.0
  3
DKM
100
AcDbAlignedDimension
 13
305.0476970516901
 23
118.6851684041433
 33
0.0
 14
370.0476970516901
 24
111.1851684041432
 34
0.0
100
AcDbRotatedDimension
1001
ACAD
1000
DSTYLE
1002
{
1070
    50
1040
1.570796326794897
1002
}
  0
DIMENSION
  5
E559
102
{ACAD_XDICTIONARY
360
E566
102
}
102
{ACAD_REACTORS
330
E570
102
}
330
1F
100
AcDbEntity
  8
DKM5_DIM_LINE
100
AcDbDimension
  2
*D28
 10
370.0476970516901
 20
132.6825688809967
 30
0.0
 11
355.0476970516901
 21
135.6325688809967
 31
0.0
 70
    32
 71
     5
 42
30.0
  3
DKM
100
AcDbAlignedDimension
 13
340.0476970516901
 23
120.1851684041432
 33
0.0
 14
370.0476970516901
 24
120.1851684041432
 34
0.0
100
AcDbRotatedDimension
1001
ACAD
1000
DSTYLE
1002
{
1070
    50
1040
1.570796326794897
1002
}
  0
DIMENSION
  5
E571
102
{ACAD_XDICTIONARY
360
E57E
102
}
102
{ACAD_REACTORS
330
E588
102
}
330
1F
100
AcDbEntity
  8
DKM5_DIM_LINE
100
AcDbDimension
  2
*D29
 10
285.8241240997271
 20
137.1851684041432
 30
0.0
 11
282.874124099727
 21
177.1851684041433
 31
0.0
 70
    32
  1
%%C<>
 71
     5
 42
80.00000000000003
  3
DKM
100
AcDbAlignedDimension
 13
305.0476970516901
 23
217.1851684041433
 33
0.0
 14
305.0476970516901
 24
137.1851684041432
 34
0.0
 50
90.0
100
AcDbRotatedDimension
1001
ACAD
1000
DSTYLE
1002
{
1070
    50
1040
1.570796326794897
1002
}
  0
DIMENSION
  5
E589
102
{ACAD_XDICTIONARY
360
E596
102
}
102
{ACAD_REACTORS
330
E5A0
102
}
330
1F
100
AcDbEntity
  8
DKM5_DIM_LINE
100
AcDbDimension
  2
*D30
 10
275.8241240997271
 20
135.5351684041433
 30
0.0
 11
271.7657907663937
 21
177.1851684041433
 31
0.0
 70
    32
  1
%%C<>{\H0.7x;\S+0.2^ +0;}
 71
     5
 42
83.30000000000001
  3
DKM
100
AcDbAlignedDimension
 13
311.0476970516901
 23
218.8351684041433
 33
0.0
 14
311.0476970516901
 24
135.5351684041433
 34
0.0
 50
90.0
100
AcDbRotatedDimension
1001
ACAD
1000
DSTYLE
1002
{
1070
    50
1040
1.570796326794897
1002
}
  0
DIMENSION
  5
E5B3
102
{ACAD_XDICTIONARY
360
E5C2
102
}
102
{ACAD_REACTORS
330
E5CE
102
}
330
1F
100
AcDbEntity
  8
DKM5_DIM_LINE
100
AcDbDimension
  2
*D31
 10
314.0476970516901
 20
232.6825688809967
 30
0.0
 11
323.4143637183568
 21
235.6325688809967
 31
0.0
 70
    32
 71
     5
 42
3.0
  3
DKM
100
AcDbAlignedDimension
 13
311.0476970516901
 23
218.8351684041433
 33
0.0
 14
314.0476970516901
 24
223.1851684041433
 34
0.0
100
AcDbRotatedDimension
1001
ACAD
1000
DSTYLE
1002
{
1070
    50
1040
1.570796326794897
1002
}
  0
DIMENSION
  5
E5CF
102
{ACAD_XDICTIONARY
360
E5DE
102
}
102
{ACAD_REACTORS
330
E5EA
102
}
330
1F
100
AcDbEntity
  8
DKM5_DIM_LINE
100
AcDbDimension
  2
*D32
 10
314.0476970516901
 20
242.6825688809967
 30
0.0
 11
309.5476970516901
 21
245.6325688809967
 31
0.0
 70
    32
 71
     5
 42
9.0
  3
DKM
100
AcDbAlignedDimension
 13
305.0476970516901
 23
223.1851684041433
 33
0.0
 14
314.0476970516901
 24
223.1851684041433
 34
0.0
100
AcDbRotatedDimension
1001
ACAD
1000
DSTYLE
1002
{
1070
    50
1040
1.570796326794897
1002
}
  0
DIMENSION
  5
E5EB
102
{ACAD_XDICTIONARY
360
E5F8
102
}
102
{ACAD_REACTORS
330
E602
102
}
330
1F
100
AcDbEntity
  8
DKM5_DIM_LINE
100
AcDbDimension
  2
*D33
 10
183.8898584723957
 20
360.3848586001954
 30
0.0
 11
158.8898584723957
 21
363.3348586001954
 31
0.0
 70
    32
 71
     5
 42
50.0
  3
DKM
100
AcDbAlignedDimension
 13
133.8898584723957
 23
334.3774170064544
 33
0.0
 14
183.8898584723957
 24
334.3774170064544
 34
0.0
100
AcDbRotatedDimension
1001
ACAD
1000
DSTYLE
1002
{
1070
    50
1040
1.570796326794897
1002
}
  0
DIMENSION
  5
E603
330
1F
100
AcDbEntity
  8
DKM5_DIM_LINE
100
AcDbDimension
  2
*D34
 10
222.8898584723958
 20
370.3848586001954
 30
0.0
 11
158.8898584723957
 21
373.3348586001954
 31
0.0
 70
    32
 71
     5
 42
128.0
  3
DKM
100
AcDbAlignedDimension
 13
94.88985847239575
 23
346.6024170064545
 33
0.0
 14
222.8898584723958
 24
346.6024170064545
 34
0.0
100
AcDbRotatedDimension
1001
ACAD
1000
DSTYLE
1002
{
1070
    50
1040
1.570796326794897
1002
}
  0
DIMENSION
  5
E61B
102
{ACAD_XDICTIONARY
360
E628
102
}
102
{ACAD_REACTORS
330
E632
102
}
330
1F
100
AcDbEntity
  8
DKM5_DIM_LINE
100
AcDbDimension
  2
*D35
 10
253.6978620877384
 20
296.3774170064545
 30
0.0
 11
250.7478620877384
 21
287.8774170064545
 31
0.0
 70
    32
 71
     5
 42
17.0
  3
DKM
100
AcDbAlignedDimension
 13
204.8898584723957
 23
279.3774170064545
 33
0.0
 14
230.0148584723956
 24
296.3774170064545
 34
0.0
 50
90.0
100
AcDbRotatedDimension
1001
ACAD
1000
DSTYLE
1002
{
1070
    50
1040
1.570796326794897
1002
}
  0
DIMENSION
  5
E633
102
{ACAD_XDICTIONARY
360
E640
102
}
102
{ACAD_REACTORS
330
E64A
102
}
330
1F
100
AcDbEntity
  8
DKM5_DIM_LINE
100
AcDbDimension
  2
*D36
 10
253.6978620877385
 20
336.3774170064544
 30
0.0
 11
250.7478620877384
 21
316.3774170064545
 31
0.0
 70
    32
 71
     5
 42
39.99999999999995
  3
DKM
100
AcDbAlignedDimension
 13
230.0148584723956
 23
296.3774170064545
 33
0.0
 14
230.0148584723956
 24
336.3774170064544
 34
0.0
 50
90.0
100
AcDbRotatedDimension
1001
ACAD
1000
DSTYLE
1002
{
1070
    50
1040
1.570796326794897
1002
}
  0
DIMENSION
  5
E666
102
{ACAD_XDICTIONARY
360
E673
102
}
102
{ACAD_REACTORS
330
E67D
102
}
330
1F
100
AcDbEntity
  8
DKM5_DIM_LINE
100
AcDbDimension
  2
*D37
 10
148.8924931676428
 20
301.3774170064544
 30
0.0
 11
145.9424931676427
 21
322.8774170064545
 31
0.0
 70
    32
 71
     5
 42
43.0
  3
DKM
100
AcDbAlignedDimension
 13
121.8898584723956
 23
344.3774170064545
 33
0.0
 14
141.8898584723956
 24
301.3774170064544
 34
0.0
 50
90.0
100
AcDbRotatedDimension
1001
ACAD
1000
DSTYLE
1002
{
1070
    50
1040
1.570796326794897
1002
}
  0
DIMENSION
  5
E67E
102
{ACAD_XDICTIONARY
360
E68D
102
}
102
{ACAD_REACTORS
330
E699
102
}
330
1F
100
AcDbEntity
  8
DKM5_DIM_LINE
100
AcDbDimension
  2
*D38
 10
73.69786208773843
 20
293.1274170064544
 30
0.0
 11
73.69786208773837
 21
315.3274170064545
 31
0.0
 70
   160
  1
4-<>
 71
     5
 42
6.500000000000056
  3
DKM
100
AcDbAlignedDimension
 13
93.38985847239564
 23
299.6274170064545
 33
0.0
 14
93.38985847239564
 24
293.1274170064544
 34
0.0
 50
90.0
100
AcDbRotatedDimension
1001
ACAD
1000
DSTYLE
1002
{
1070
    50
1040
1.570796326794897
1002
}
  0
DIMENSION
  5
E6A5
102
{ACAD_XDICTIONARY
360
E6B3
102
}
102
{ACAD_REACTORS
330
E6BE
102
}
330
1F
100
AcDbEntity
  8
DKM5_DIM_LINE
100
AcDbDimension
  2
*D39
 10
99.63985847239563
 20
269.632064583664
 30
0.0
 11
77.93985847239557
 21
269.632064583664
 31
0.0
 70
   160
  1
4-<>
 71
     5
 42
9.5
  3
DKM
100
AcDbAlignedDimension
 13
90.13985847239561
 23
296.3774170064545
 33
0.0
 14
99.63985847239563
 24
296.3774170064545
 34
0.0
100
AcDbRotatedDimension
1001
ACAD
1000
DSTYLE
1002
{
1070
    50
1040
1.570796326794897
1002
}
  0
LINE
  5
E7B4
330
1F
100
AcDbEntity
  8
DKM5_DIM_LINE
 62
     1
100
AcDbLine
 10
246.7898950314476
 20
262.6238022353863
 30
0.0
 11
229.259255458983
 21
282.12067254462
 31
0.0
  0
MTEXT
  5
E7B5
330
1F
100
AcDbEntity
  8
DKM5_DIM_LINE
 62
     2
100
AcDbMText
 10
245.172426563278
 20
268.8347841025694
 30
0.0
 40
3.5
 41
0.0
 71
     5
 72
     1
  1
R15
 11
0.6686160533290325
 21
-0.7436078087478025
 31
0.0
 73
     1
 44
1.0
  0
SOLID
  5
E7B7
330
1F
100
AcDbEntity
  8
DKM5_DIM_LINE
 62
     1
100
AcDbTrace
 10
229.6930266807526
 20
282.5106985757287
 30
0.0
 11
228.8254842372134
 21
281.7306465135114
 31
0.0
 12
226.9190992723314
 22
284.7232998752373
 32
0.0
 13
226.9190992723314
 23
284.7232998752373
 33
0.0
  0
LINE
  5
E7B8
330
1F
100
AcDbEntity
  8
DKM5_DIM_LINE
 62
     1
100
AcDbLine
 10
243.5309271504304
 20
352.7682882874079
 30
0.0
 11
232.1769861890672
 21
343.1195565238091
 31
0.0
  0
MTEXT
  5
E7B9
330
1F
100
AcDbEntity
  8
DKM5_DIM_LINE
 62
     2
100
AcDbMText
 10
237.2771538495991
 20
351.3250906218715
 30
0.0
 40
3.5
 41
0.0
 71
     5
 72
     1
  1
R10
 11
0.7620094604941778
 21
0.6475658901744072
 31
0.0
 73
     1
 44
1.0
  0
SOLID
  5
E7BB
330
1F
100
AcDbEntity
  8
DKM5_DIM_LINE
 62
     1
100
AcDbTrace
 10
231.7992394197987
 20
343.5640620424307
 30
0.0
 11
232.5547329583355
 21
342.6750510051875
 31
0.0
 12
229.5099530773375
 22
340.8530759081987
 32
0.0
 13
229.5099530773375
 23
340.8530759081987
 33
0.0
  0
ARC
  5
E7BC
330
1F
100
AcDbEntity
  8
DKM2_OUTLINE
370
    15
100
AcDbCircle
 10
88.88985847239565
 20
117.1851684041433
 30
0.0
 40
3.0
100
AcDbArc
 50
90.0
 51
180.0
  0
ARC
  5
E7BD
330
1F
100
AcDbEntity
  8
DKM2_OUTLINE
370
    15
100
AcDbCircle
 10
228.8898584723958
 20
117.1851684041433
 30
0.0
 40
3.0
100
AcDbArc
 50
0.0
 51
90.0
  0
ENDSEC
  0
SECTION
  2
OBJECTS
  0
DICTIONARY
  5
C
330
0
100
AcDbDictionary
281
     1
  3
ACAD_2007HEADERVARS_RT
350
EB7D
  3
ACAD_CIP_PREVIOUS_PRODUCT_INFO
350
9964
  3
ACAD_COLOR
350
6B
  3
ACAD_GROUP
350
D
  3
ACAD_LAYOUT
350
1A
  3
ACAD_MATERIAL
350
6A
  3
ACAD_MLEADERSTYLE
350
59DA
  3
ACAD_MLINESTYLE
350
17
  3
ACAD_PLOTSETTINGS
350
19
  3
ACAD_PLOTSTYLENAME
350
E
  3
ACAD_SCALELIST
350
59C8
  3
ACAD_TABLESTYLE
350
7E
  3
ACAD_VISUALSTYLE
350
59AF
  3
ACDB_RECOMPOSE_DATA
350
EB7C
  3
AcDbVariableDictionary
350
5E
  0
DICTIONARY
  5
C6BD
330
8
100
AcDbDictionary
280
     1
281
     1
  0
DICTIONARY
  5
FF
330
2
100
AcDbDictionary
280
     1
281
     1
  3
ACAD_LAYERFILTERS
360
5989
  3
ACAD_LAYERSTATES
360
100
  3
ACLYDICTIONARY
360
5988
  0
DICTIONARY
  5
5A13
330
10
100
AcDbDictionary
280
     1
281
     1
  3
ADSK_XREC_LAYER_RECONCILED
360
5A14
  0
DICTIONARY
  5
5A17
330
F7
100
AcDbDictionary
280
     1
281
     1
  3
ADSK_XREC_LAYER_RECONCILED
360
5A18
  0
DICTIONARY
  5
5A19
330
4A8
100
AcDbDictionary
280
     1
281
     1
  3
ADSK_XREC_LAYER_RECONCILED
360
5A1A
  0
DICTIONARY
  5
5A1B
330
4A9
100
AcDbDictionary
280
     1
281
     1
  3
ADSK_XREC_LAYER_RECONCILED
360
5A1C
  0
DICTIONARY
  5
5A1D
330
4AA
100
AcDbDictionary
280
     1
281
     1
  3
ADSK_XREC_LAYER_RECONCILED
360
5A1E
  0
DICTIONARY
  5
5A1F
330
4AB
100
AcDbDictionary
280
     1
281
     1
  3
ADSK_XREC_LAYER_RECONCILED
360
5A20
  0
DICTIONARY
  5
5A21
330
4AC
100
AcDbDictionary
280
     1
281
     1
  3
ADSK_XREC_LAYER_RECONCILED
360
5A22
  0
DICTIONARY
  5
5A23
330
4B4
100
AcDbDictionary
280
     1
281
     1
  3
ADSK_XREC_LAYER_RECONCILED
360
5A24
  0
DICTIONARY
  5
EB7A
330
EB79
100
AcDbDictionary
280
     1
281
     1
  3
ASDK_XREC_ANNO_SCALE_INFO
360
EB7B
  0
DICTIONARY
  5
566C
330
1F
100
AcDbDictionary
280
     1
281
     1
  3
ACAD_SORTENTS
360
566D
  0
DICTIONARY
  5
EB89
330
EA58
100
AcDbDictionary
280
     1
281
     1
  3
ACAD_MTEXT_2008_RT
360
EB8A
  0
DICTIONARY
  5
E428
330
E41B
100
AcDbDictionary
280
     1
281
     1
  3
ACAD_DIMASSOC
360
E432
  0
DICTIONARY
  5
E442
330
E433
100
AcDbDictionary
280
     1
281
     1
  3
ACAD_DIMASSOC
360
E44E
  0
DICTIONARY
  5
E45E
330
E44F
100
AcDbDictionary
280
     1
281
     1
  3
ACAD_DIMASSOC
360
E46A
  0
DICTIONARY
  5
E478
330
E46B
100
AcDbDictionary
280
     1
281
     1
  3
ACAD_DIMASSOC
360
E482
  0
DICTIONARY
  5
E490
330
E483
100
AcDbDictionary
280
     1
281
     1
  3
ACAD_DIMASSOC
360
E49A
  0
DICTIONARY
  5
E4D5
330
E4C8
100
AcDbDictionary
280
     1
281
     1
  3
ACAD_DIMASSOC
360
E4DF
  0
DICTIONARY
  5
E4ED
330
E4E0
100
AcDbDictionary
280
     1
281
     1
  3
ACAD_DIMASSOC
360
E4F7
  0
DICTIONARY
  5
E505
330
E4F8
100
AcDbDictionary
280
     1
281
     1
  3
ACAD_DIMASSOC
360
E50F
  0
DICTIONARY
  5
E51C
330
E510
100
AcDbDictionary
280
     1
281
     1
  3
ACAD_DIMASSOC
360
E525
  0
DICTIONARY
  5
E533
330
E52E
100
AcDbDictionary
280
     1
281
     1
  3
ACAD_DIMASSOC
360
E537
  3
AcDbContextDataManager
360
E534
  0
DICTIONARY
  5
E545
330
E538
100
AcDbDictionary
280
     1
281
     1
  3
ACAD_DIMASSOC
360
E54F
  0
DICTIONARY
  5
E566
330
E559
100
AcDbDictionary
280
     1
281
     1
  3
ACAD_DIMASSOC
360
E570
  0
DICTIONARY
  5
E57E
330
E571
100
AcDbDictionary
280
     1
281
     1
  3
ACAD_DIMASSOC
360
E588
  0
DICTIONARY
  5
E596
330
E589
100
AcDbDictionary
280
     1
281
     1
  3
ACAD_DIMASSOC
360
E5A0
  0
DICTIONARY
  5
E5C2
330
E5B3
100
AcDbDictionary
280
     1
281
     1
  3
ACAD_DIMASSOC
360
E5CE
  0
DICTIONARY
  5
E5DE
330
E5CF
100
AcDbDictionary
280
     1
281
     1
  3
ACAD_DIMASSOC
360
E5EA
  0
DICTIONARY
  5
E5F8
330
E5EB
100
AcDbDictionary
280
     1
281
     1
  3
ACAD_DIMASSOC
360
E602
  0
DICTIONARY
  5
E628
330
E61B
100
AcDbDictionary
280
     1
281
     1
  3
ACAD_DIMASSOC
360
E632
  0
DICTIONARY
  5
E640
330
E633
100
AcDbDictionary
280
     1
281
     1
  3
ACAD_DIMASSOC
360
E64A
  0
DICTIONARY
  5
E673
330
E666
100
AcDbDictionary
280
     1
281
     1
  3
ACAD_DIMASSOC
360
E67D
  0
DICTIONARY
  5
E68D
330
E67E
100
AcDbDictionary
280
     1
281
     1
  3
ACAD_DIMASSOC
360
E699
  0
DICTIONARY
  5
E6B3
330
E6A5
100
AcDbDictionary
280
     1
281
     1
  3
ACAD_DIMASSOC
360
E6BE
  0
DICTIONARY
  5
EB7D
102
{ACAD_REACTORS
330
C
102
}
330
C
100
AcDbDictionary
281
     1
  3
DIMFXL
350
EB7E
  3
DIMJOGANG
350
EB7F
  0
XRECORD
  5
9964
102
{ACAD_REACTORS
330
C
102
}
330
C
100
AcDbXrecord
280
     1
300
ACD
300
2012
300
ACD_F_S
  0
DICTIONARY
  5
6B
102
{ACAD_REACTORS
330
C
102
}
330
C
100
AcDbDictionary
281
     1
  0
DICTIONARY
  5
D
102
{ACAD_REACTORS
330
C
102
}
330
C
100
AcDbDictionary
281
     1
  0
DICTIONARY
  5
1A
102
{ACAD_REACTORS
330
C
102
}
330
C
100
AcDbDictionary
281
     1
  3
Model
350
22
  3
배치1
350
D3
  3
배치2
350
D7
  0
DICTIONARY
  5
6A
102
{ACAD_REACTORS
330
C
102
}
330
C
100
AcDbDictionary
281
     1
  3
ByBlock
350
59A7
  3
ByLayer
350
599F
  3
Global
350
FC
  0
DICTIONARY
  5
59DA
102
{ACAD_REACTORS
330
C
102
}
330
C
100
AcDbDictionary
281
     1
  3
Standard
350
59DB
  0
DICTIONARY
  5
17
102
{ACAD_REACTORS
330
C
102
}
330
C
100
AcDbDictionary
281
     1
  3
Standard
350
18
  0
DICTIONARY
  5
19
102
{ACAD_REACTORS
330
C
102
}
330
C
100
AcDbDictionary
281
     1
  0
ACDBDICTIONARYWDFLT
  5
E
102
{ACAD_REACTORS
330
C
102
}
330
C
100
AcDbDictionary
281
     1
  3
Normal
350
F
100
AcDbDictionaryWithDefault
340
F
  0
DICTIONARY
  5
59C8
102
{ACAD_REACTORS
330
C
102
}
330
C
100
AcDbDictionary
281
     1
  3
A0
350
59C9
  3
A1
350
59CA
  3
A2
350
59CB
  3
A3
350
59CC
  3
A4
350
59CD
  3
A5
350
59CE
  3
A6
350
59CF
  3
A7
350
59D0
  3
A8
350
59D1
  3
A9
350
59D2
  3
B0
350
59D3
  3
B1
350
59D4
  3
B2
350
59D5
  3
B3
350
59D6
  3
B4
350
59D7
  3
B5
350
59D8
  3
B6
350
59D9
  0
DICTIONARY
  5
7E
102
{ACAD_REACTORS
330
C
102
}
330
C
100
AcDbDictionary
281
     1
  3
Standard
350
7F
  0
DICTIONARY
  5
59AF
102
{ACAD_REACTORS
330
C
102
}
330
C
100
AcDbDictionary
281
     1
  3
2dWireframe
350
59B5
  3
3D Hidden
350
C3FC
  3
3dWireframe
350
C3FB
  3
Basic
350
59B4
  3
Brighten
350
59BB
  3
ColorChange
350
59BF
  3
Conceptual
350
59B8
  3
Dim
350
59BA
  3
EdgeColorOff
350
59C7
  3
Facepattern
350
59BE
  3
Flat
350
59B0
  3
FlatWithEdges
350
59B1
  3
Gouraud
350
59B2
  3
GouraudWithEdges
350
59B3
  3
Hidden
350
59B7
  3
JitterOff
350
59C5
  3
Linepattern
350
59BD
  3
OverhangOff
350
59C6
  3
Realistic
350
59B9
  3
Shaded
350
59C4
  3
Shaded with edges
350
59C3
  3
Shades of Gray
350
59C0
  3
Sketchy
350
59C1
  3
Thicken
350
59BC
  3
Wireframe
350
59B6
  3
X-Ray
350
59C2
  0
XRECORD
  5
EB7C
102
{ACAD_REACTORS
330
C
102
}
330
C
100
AcDbXrecord
280
     1
 90
        1
330
7F
330
BDF5
330
E52E
  0
DICTIONARY
  5
5E
102
{ACAD_REACTORS
330
C
102
}
330
C
100
AcDbDictionary
281
     1
  3
CANNOSCALE
350
5AB7
  3
CMLEADERSTYLE
350
5AB6
  3
CTABLESTYLE
350
84
  3
DIMASSOC
350
5F
  3
HIDETEXT
350
63
  3
PROJECTNAME
350
599D
  0
DICTIONARY
  5
5989
102
{ACAD_REACTORS
330
FF
102
}
330
FF
100
AcDbDictionary
281
     1
  0
DICTIONARY
  5
100
102
{ACAD_REACTORS
330
FF
102
}
330
FF
100
AcDbDictionary
281
     1
  0
DICTIONARY
  5
5988
102
{ACAD_REACTORS
330
FF
102
}
330
FF
100
AcDbDictionary
281
     1
1001
ACAD
1000
<All
  0
XRECORD
  5
5A14
102
{ACAD_REACTORS
330
5A13
102
}
330
5A13
100
AcDbXrecord
280
     1
290
     1
  0
XRECORD
  5
5A18
102
{ACAD_REACTORS
330
5A17
102
}
330
5A17
100
AcDbXrecord
280
     1
290
     1
  0
XRECORD
  5
5A1A
102
{ACAD_REACTORS
330
5A19
102
}
330
5A19
100
AcDbXrecord
280
     1
290
     1
  0
XRECORD
  5
5A1C
102
{ACAD_REACTORS
330
5A1B
102
}
330
5A1B
100
AcDbXrecord
280
     1
290
     1
  0
XRECORD
  5
5A1E
102
{ACAD_REACTORS
330
5A1D
102
}
330
5A1D
100
AcDbXrecord
280
     1
290
     1
  0
XRECORD
  5
5A20
102
{ACAD_REACTORS
330
5A1F
102
}
330
5A1F
100
AcDbXrecord
280
     1
290
     1
  0
XRECORD
  5
5A22
102
{ACAD_REACTORS
330
5A21
102
}
330
5A21
100
AcDbXrecord
280
     1
290
     1
  0
XRECORD
  5
5A24
102
{ACAD_REACTORS
330
5A23
102
}
330
5A23
100
AcDbXrecord
280
     1
290
     1
  0
XRECORD
  5
EB7B
102
{ACAD_REACTORS
330
EB7A
102
}
330
EB7A
100
AcDbXrecord
280
     1
 70
     1
340
59C9
340
4B4
 70
    -1
  0
SORTENTSTABLE
  5
566D
102
{ACAD_REACTORS
330
566C
102
}
330
566C
100
AcDbSortentsTable
330
1F
331
BDBF
  5
BDC0
331
BD45
  5
BD46
331
BDBB
  5
BDBC
331
BD41
  5
BD42
331
BD7C
  5
BD7D
331
BDB7
  5
BDB8
331
BD3D
  5
BD3E
331
BD78
  5
BD79
331
BDB3
  5
BDB4
331
BD39
  5
BD3A
331
DF15
  5
DF15
331
DF8F
  5
DF92
331
DF11
  5
DF11
331
DF8B
  5
DF8D
331
E3AE
  5
E3BB
331
DF0D
  5
DF0D
331
DF87
  5
DF89
331
DF4C
  5
DF4E
331
DF09
  5
DF09
331
DF48
  5
DF4A
331
BD35
  5
BD36
331
BDAF
  5
BDB0
331
BDF6
  5
CF8D
331
BD74
  5
BD75
331
BD31
  5
BD31
331
BDAB
  5
BDAC
331
BDF2
  5
BDF5
331
BD70
  5
BD71
331
BD6C
  5
BD6D
331
BDA7
  5
BDA8
331
BDEE
  5
BDEF
331
BD2D
  5
BD2D
331
BD68
  5
BD6B
331
BDA3
  5
BDA4
331
BDEA
  5
BDEB
331
BD29
  5
BD29
331
E52E
  5
E559
331
E7BB
  5
E7BD
331
DF7F
  5
DF82
331
DF44
  5
DF46
331
E1DA
  5
E2D9
331
DF7B
  5
DF7D
331
DF40
  5
DF42
331
E1D6
  5
E1DB
331
DF77
  5
DF79
331
DF3C
  5
DF3F
331
E1D2
  5
E1D6
331
DF73
  5
DF75
331
DF38
  5
DF3B
331
BD9F
  5
BDA0
331
BDE6
  5
BDE7
331
BD64
  5
BD65
331
BD9B
  5
BD9C
331
BDE2
  5
BDE3
331
BD60
  5
BD61
331
BDDE
  5
BDDF
331
BD97
  5
BD98
331
BD5C
  5
BD5D
331
E7B7
  5
E7B9
331
BDDA
  5
BDDB
331
BD93
  5
BD94
331
BD58
  5
BD59
331
E419
  5
E41B
331
E415
  5
E417
331
DF6F
  5
DF71
331
E1CE
  5
E1D2
331
DF30
  5
DF32
331
DF6B
  5
DF6D
331
DF2C
  5
DF2D
331
DF67
  5
DF69
331
E12A
  5
E1CD
331
DF63
  5
DF65
331
BD8F
  5
BD90
331
BD54
  5
BD55
331
BDCA
  5
BDCB
331
BD8B
  5
BD8C
331
BD50
  5
BD51
331
BDC6
  5
BDC7
331
BD87
  5
BD88
331
BD4C
  5
BD4D
331
BDC2
  5
BDC3
331
BD48
  5
BD49
331
E3B5
  5
E3B4
331
7611
  5
7689
331
DF5F
  5
DF61
331
DF20
  5
DF20
331
DF5B
  5
DF5D
331
DF1C
  5
DF1C
331
DF57
  5
DF59
331
DF96
  5
E12A
331
DF18
  5
DF18
331
DF53
  5
DF55
331
DF92
  5
DF94
331
BDBE
  5
BDBF
331
BD44
  5
BD45
331
BD7F
  5
BD86
331
BDBA
  5
BDBB
331
BD40
  5
BD41
331
BD7B
  5
BD7C
331
BDB6
  5
BDB7
331
BD3C
  5
BD3D
331
BDB2
  5
BDB3
331
BD38
  5
BD39
331
DF14
  5
DF14
331
DF10
  5
DF10
331
DF8A
  5
DF8C
331
DF4F
  5
DF51
331
DF0C
  5
DF0C
331
DF4B
  5
DF4D
331
DF86
  5
DF88
331
E3AD
  5
E3B9
331
DF82
  5
DF85
331
BD34
  5
BD35
331
BDAE
  5
BDAF
331
BDF5
  5
BDF6
331
BD73
  5
BD74
331
BD6F
  5
BD70
331
BD30
  5
BD30
331
BDAA
  5
BDAB
331
BDF1
  5
BDF2
331
BD6B
  5
BD6C
331
BDA6
  5
BDA7
331
BDED
  5
BDEE
331
BD2C
  5
BD2C
331
BDA2
  5
BDA3
331
BDE9
  5
BDEA
331
BD28
  5
BD28
331
E483
  5
E4E0
331
DF47
  5
DF49
331
DF7E
  5
DF81
331
DF43
  5
DF45
331
DF3F
  5
DF41
331
DF7A
  5
DF7C
331
E1D9
  5
E2D8
331
DF3B
  5
DF3E
331
DF76
  5
DF78
331
E1D5
  5
E1DA
331
DF72
  5
DF74
331
E1D1
  5
E1D5
331
BD67
  5
BD68
331
BDE5
  5
BDE6
331
BD63
  5
BD64
331
BD9E
  5
BD9F
331
BDE1
  5
BDE2
331
BD9A
  5
BD9B
331
BD5F
  5
BD60
331
BDDD
  5
BDDE
331
BD96
  5
BD97
331
BD5B
  5
BD5C
331
BDD9
  5
BDDA
331
BD92
  5
BD93
331
E414
  5
E416
331
E46B
  5
E4C8
331
DF6E
  5
DF70
331
E1CD
  5
E1D1
331
DF2F
  5
DF31
331
DF6A
  5
DF6C
331
DF66
  5
DF68
331
DF62
  5
DF64
331
BD57
  5
BD58
331
BD8E
  5
BD8F
331
BD53
  5
BD54
331
BDC9
  5
BDCA
331
BD8A
  5
BD8B
331
BD4F
  5
BD50
331
BDC5
  5
BDC6
331
BD86
  5
BD87
331
BD4B
  5
BD4C
331
BDC1
  5
BDC2
331
E3B0
  5
E415
331
DF27
  5
DF27
331
DF23
  5
DF23
331
DF5E
  5
DF60
331
DF1F
  5
DF1F
331
DF5A
  5
DF5C
331
DF1B
  5
DF1B
331
DF56
  5
DF58
331
DF95
  5
E127
331
DF52
  5
DF54
331
BD47
  5
BD48
331
BDBD
  5
BDBE
331
BD43
  5
BD44
331
BD7E
  5
BD7F
331
E44F
  5
E483
331
BDB9
  5
BDBA
331
BD3F
  5
BD40
331
BD7A
  5
BD7B
331
BDB5
  5
BDB6
331
BD3B
  5
BD3C
331
BDB1
  5
BDB2
331
E538
  5
E571
331
E589
  5
E5CF
331
DF17
  5
DF17
331
DF13
  5
DF13
331
DF8D
  5
DF90
331
DF0F
  5
DF0F
331
DF89
  5
DF8B
331
DF4E
  5
DF50
331
DF0B
  5
DF0B
331
DF85
  5
DF87
331
DF4A
  5
DF4C
331
DF81
  5
DF84
331
BD37
  5
BD38
331
BD76
  5
BD78
331
BDAD
  5
BDAE
331
BD33
  5
BD33
331
BD72
  5
BD73
331
BD6E
  5
BD6F
331
BD2F
  5
BD2F
331
BDA9
  5
BDAA
331
BDF0
  5
BDF1
331
E433
  5
E46B
331
BDA5
  5
BDA6
331
BDEC
  5
BDED
331
BD2B
  5
BD2B
331
BDA1
  5
BDA2
331
BDE8
  5
BDE9
331
E7BD
  5
DF29
331
E7B9
  5
E7BC
331
E571
  5
E5B3
331
DF46
  5
DF48
331
E633
  5
E67E
331
DF42
  5
DF44
331
DF7D
  5
DF7F
331
DA3B
  5
DA3B
331
DF3E
  5
DF40
331
DF79
  5
DF7B
331
E1D8
  5
E2D7
331
D977
  5
DA3A
331
DF75
  5
DF77
331
E1D4
  5
E1D9
331
DF71
  5
DF73
331
E1D0
  5
E1D4
331
BD27
  5
BD27
331
BD66
  5
BD67
331
BD9D
  5
BD9E
331
BDE4
  5
BDE5
331
BD62
  5
BD63
331
BD5E
  5
BD5F
331
BD99
  5
BD9A
331
BDE0
  5
BDE1
331
BD95
  5
BD96
331
BDDC
  5
BDDD
331
BD5A
  5
BD5B
331
E7B5
  5
E7B8
331
E41B
  5
E44F
331
BD91
  5
BD92
331
E417
  5
E41A
331
E67E
  5
E7A2
331
E559
  5
E589
331
E61B
  5
E666
331
DF32
  5
DF39
331
DF6D
  5
DF6F
331
D91B
  5
D977
331
DF2E
  5
DF30
331
DF69
  5
DF6B
331
E12C
  5
E1CF
331
DF2A
  5
DF2C
331
DF65
  5
DF67
331
DF61
  5
DF63
331
BD56
  5
BD57
331
BD8D
  5
BD8E
331
BD52
  5
BD53
331
BDC8
  5
BDC9
331
BD89
  5
BD8A
331
BD4E
  5
BD4F
331
E3BB
  5
E3B0
331
BDC4
  5
BDC5
331
BD4A
  5
BD4B
331
E3B7
  5
E3B6
331
BDC0
  5
BDC1
331
E510
  5
E538
331
E603
  5
E633
331
E3B3
  5
E3B8
331
DF26
  5
DF26
331
DF5D
  5
DF5F
331
DF1E
  5
DF1E
331
DF59
  5
DF5B
331
DF1A
  5
DF1A
331
DF55
  5
DF57
331
DF94
  5
DF96
331
DF51
  5
DF53
331
DF90
  5
DF93
331
BD46
  5
BD47
331
BDBC
  5
BDBD
331
BD42
  5
BD43
331
BD7D
  5
BD7E
331
BDB8
  5
BDB9
331
BD3E
  5
BD3F
331
BD79
  5
BD7A
331
BDB4
  5
BDB5
331
BD3A
  5
BD3B
331
BDB0
  5
BDB1
331
E666
  5
E6A5
331
E5EB
  5
E61B
331
E4F8
  5
E52E
331
E6A5
  5
E7B4
331
DF16
  5
DF16
331
DF12
  5
DF12
331
DF8C
  5
DF8F
331
DF0E
  5
DF0E
331
DF4D
  5
DF4F
331
DF88
  5
DF8A
331
E3AF
  5
E414
331
DF0A
  5
DF0A
331
DF84
  5
DF86
331
DF49
  5
DF4B
331
BD36
  5
BD37
331
BD75
  5
BD76
331
BDAC
  5
BDAD
331
BD32
  5
BD32
331
BD71
  5
BD72
331
BD6D
  5
BD6E
331
BDA8
  5
BDA9
331
BDEF
  5
BDF0
331
BD2E
  5
BD2E
331
BDA4
  5
BDA5
331
BDEB
  5
BDEC
331
BD2A
  5
BD2A
331
BDA0
  5
BDA1
331
E7BC
  5
DF2E
331
E7B8
  5
E7BB
331
DF45
  5
DF47
331
DF41
  5
DF43
331
DF7C
  5
DF7E
331
E1DB
  5
E2DA
331
DA3A
  5
BD34
331
DF78
  5
DF7A
331
DF39
  5
DF3C
331
E1D3
  5
E1D8
331
DF74
  5
DF76
331
DF70
  5
DF72
331
BDE7
  5
BDE8
331
BD65
  5
BD66
331
BD9C
  5
BD9D
331
BDE3
  5
BDE4
331
BD61
  5
BD62
331
BDDF
  5
BDE0
331
BD98
  5
BD99
331
BD5D
  5
BD5E
331
BDDB
  5
BDDC
331
BD94
  5
BD95
331
BD59
  5
BD5A
331
E41A
  5
E433
331
E5CF
  5
E603
331
E7B4
  5
E7B6
331
BD90
  5
BD91
331
E4E0
  5
E510
331
E416
  5
E419
331
E1CF
  5
E1D3
331
7A62
  5
7A61
331
E1CB
  5
E1D0
331
DF31
  5
DF38
331
DF6C
  5
DF6E
331
DF2D
  5
DF2F
331
DF68
  5
DF6A
331
E12B
  5
E1CE
331
DF29
  5
DF2A
331
DF64
  5
DF66
331
DF60
  5
DF62
331
BD55
  5
BD56
331
BDCB
  5
BDD9
331
BD8C
  5
BD8D
331
BD51
  5
BD52
331
BDC7
  5
BDC8
331
BD88
  5
BD89
331
BD4D
  5
BD4E
331
BDC3
  5
BDC4
331
BD49
  5
BD4A
331
E5B3
  5
E5EB
331
E4C8
  5
E4F8
331
E127
  5
E1CB
331
DF25
  5
DF25
331
DF21
  5
DF21
331
DF5C
  5
DF5E
331
DF1D
  5
DF1D
331
DF58
  5
DF5A
331
DF19
  5
DF19
331
DF54
  5
DF56
331
DF93
  5
DF95
331
DF50
  5
DF52
  0
XRECORD
  5
EB8A
102
{ACAD_REACTORS
330
EB89
102
}
330
EB89
100
AcDbXrecord
280
     1
 40
6913.0
  1
\U+2205104%%P0.3
  0
DIMASSOC
  5
E432
102
{ACAD_REACTORS
330
E428
102
}
330
E428
100
AcDbDimAssoc
330
E41B
 90
        3
 70
     0
 71
     0
  1
AcDbOsnapPointRef
 72
     1
331
DF2E
 73
     2
 91
        0
 40
1.0
 10
0.0
 20
0.0
 30
2.000000000000000E+50
 75
     0
  1
AcDbOsnapPointRef
 72
    13
331
DF2A
 73
     2
 91
        0
 40
0.0
 10
0.0
 20
0.0
 30
2.000000000000000E+50
 75
     0
  0
DIMASSOC
  5
E44E
102
{ACAD_REACTORS
330
E442
102
}
330
E442
100
AcDbDimAssoc
330
E433
 90
        3
 70
     0
 71
     0
  1
AcDbOsnapPointRef
 72
     1
331
DF25
 73
     2
 91
        0
 40
1.0
 10
0.0
 20
0.0
 30
2.000000000000000E+50
 75
     0
  1
AcDbOsnapPointRef
 72
     1
331
DF26
 73
     2
 91
        0
 40
1.0
 10
0.0
 20
0.0
 30
2.000000000000000E+50
 75
     0
  0
DIMASSOC
  5
E46A
102
{ACAD_REACTORS
330
E45E
102
}
330
E45E
100
AcDbDimAssoc
330
E44F
 90
        3
 70
     0
 71
     0
  1
AcDbOsnapPointRef
 72
    13
331
DF2A
 73
     2
 91
        0
 40
0.0
 10
0.0
 20
0.0
 30
2.000000000000000E+50
 75
     0
  1
AcDbOsnapPointRef
 72
     1
331
DF29
 73
     2
 91
        0
 40
1.0
 10
0.0
 20
0.0
 30
2.000000000000000E+50
 75
     0
  0
DIMASSOC
  5
E482
102
{ACAD_REACTORS
330
E478
102
}
330
E478
100
AcDbDimAssoc
330
E46B
 90
        3
 70
     0
 71
     0
  1
AcDbOsnapPointRef
 72
     1
331
DF2E
 73
     2
 91
        0
 40
1.0
 10
0.0
 20
0.0
 30
2.000000000000000E+50
 75
     0
  1
AcDbOsnapPointRef
 72
    13
331
E1D4
 73
     2
 91
        0
 40
0.0
 10
0.0
 20
0.0
 30
2.000000000000000E+50
 75
     0
  0
DIMASSOC
  5
E49A
102
{ACAD_REACTORS
330
E490
102
}
330
E490
100
AcDbDimAssoc
330
E483
 90
        3
 70
     0
 71
     0
  1
AcDbOsnapPointRef
 72
     1
331
DF2E
 73
     2
 91
        0
 40
1.0
 10
0.0
 20
0.0
 30
2.000000000000000E+50
 75
     0
  1
AcDbOsnapPointRef
 72
    13
331
DF11
 73
     2
 91
        0
 40
0.0
 10
0.0
 20
0.0
 30
2.000000000000000E+50
 75
     0
  0
DIMASSOC
  5
E4DF
102
{ACAD_REACTORS
330
E4D5
102
}
330
E4D5
100
AcDbDimAssoc
330
E4C8
 90
        3
 70
     0
 71
     0
  1
AcDbOsnapPointRef
 72
     1
331
DF17
 73
     2
 91
        0
 40
3.141592653589793
 10
0.0
 20
0.0
 30
2.000000000000000E+50
 75
     0
  1
AcDbOsnapPointRef
 72
    13
331
DF14
 73
     2
 91
        0
 40
0.0
 10
0.0
 20
0.0
 30
2.000000000000000E+50
 75
     0
  0
DIMASSOC
  5
E4F7
102
{ACAD_REACTORS
330
E4ED
102
}
330
E4ED
100
AcDbDimAssoc
330
E4E0
 90
        3
 70
     0
 71
     0
  1
AcDbOsnapPointRef
 72
    13
331
DF11
 73
     2
 91
        0
 40
0.0
 10
0.0
 20
0.0
 30
2.000000000000000E+50
 75
     0
  1
AcDbOsnapPointRef
 72
     1
331
DF20
 73
     2
 91
        0
 40
1.0
 10
0.0
 20
0.0
 30
2.000000000000000E+50
 75
     0
  0
DIMASSOC
  5
E50F
102
{ACAD_REACTORS
330
E505
102
}
330
E505
100
AcDbDimAssoc
330
E4F8
 90
        3
 70
     0
 71
     0
  1
AcDbOsnapPointRef
 72
    13
331
DF2A
 73
     2
 91
        0
 40
0.0
 10
0.0
 20
0.0
 30
2.000000000000000E+50
 75
     0
  1
AcDbOsnapPointRef
 72
     6
331
DF18
 73
     2
 91
        0
 40
1.0
 10
0.0
 20
0.0
 30
0.0
332
DF13
 74
     2
 92
        0
 75
     0
  0
DIMASSOC
  5
E525
102
{ACAD_REACTORS
330
E51C
102
}
330
E51C
100
AcDbDimAssoc
330
E510
 90
        2
 70
     0
 71
     0
  1
AcDbOsnapPointRef
 72
     3
331
E3B3
 73
     2
 91
        0
 40
0.0
 10
0.0
 20
0.0
 30
0.0
 75
     0
  0
DIMASSOC
  5
E537
102
{ACAD_REACTORS
330
E533
102
}
330
E533
100
AcDbDimAssoc
330
E52E
 90
        1
 70
     0
 71
     0
  1
AcDbOsnapPointRef
 72
     5
331
E127
 73
     2
 91
        0
 40
7.853981633974482
 10
0.0
 20
0.0
 30
0.0
 75
     0
  0
DICTIONARY
  5
E534
102
{ACAD_REACTORS
330
E533
102
}
330
E533
100
AcDbDictionary
281
     1
  3
ACDB_ANNOTATIONSCALES
350
E535
  0
DIMASSOC
  5
E54F
102
{ACAD_REACTORS
330
E545
102
}
330
E545
100
AcDbDimAssoc
330
E538
 90
        3
 70
     0
 71
     0
  1
AcDbOsnapPointRef
 72
     1
331
DF90
 73
     2
 91
        0
 40
1.0
 10
0.0
 20
0.0
 30
2.000000000000000E+50
 75
     0
  1
AcDbOsnapPointRef
 72
    13
331
DF82
 73
     2
 91
        0
 40
0.0
 10
0.0
 20
0.0
 30
2.000000000000000E+50
 75
     0
  0
DIMASSOC
  5
E570
102
{ACAD_REACTORS
330
E566
102
}
330
E566
100
AcDbDimAssoc
330
E559
 90
        3
 70
     0
 71
     0
  1
AcDbOsnapPointRef
 72
    13
331
DF89
 73
     2
 91
        0
 40
0.0
 10
0.0
 20
0.0
 30
2.000000000000000E+50
 75
     0
  1
AcDbOsnapPointRef
 72
     8
331
DF7F
 73
     2
 91
        0
 40
0.0
 10
0.0
 20
0.0
 30
0.0
 75
     1
  1
AcDbOsnapPointRef
 72
    13
331
DF89
 73
     2
 91
        0
 40
0.0
 10
0.0
 20
0.0
 30
2.000000000000000E+50
 75
     0
  0
DIMASSOC
  5
E588
102
{ACAD_REACTORS
330
E57E
102
}
330
E57E
100
AcDbDimAssoc
330
E571
 90
        3
 70
     0
 71
     0
  1
AcDbOsnapPointRef
 72
     1
331
E417
 73
     2
 91
        0
 40
1.0
 10
0.0
 20
0.0
 30
2.000000000000000E+50
 75
     0
  1
AcDbOsnapPointRef
 72
     1
331
E414
 73
     2
 91
        0
 40
1.0
 10
0.0
 20
0.0
 30
2.000000000000000E+50
 75
     0
  0
DIMASSOC
  5
E5A0
102
{ACAD_REACTORS
330
E596
102
}
330
E596
100
AcDbDimAssoc
330
E589
 90
        3
 70
     0
 71
     0
  1
AcDbOsnapPointRef
 72
    13
331
E419
 73
     2
 91
        0
 40
0.0
 10
0.0
 20
0.0
 30
2.000000000000000E+50
 75
     0
  1
AcDbOsnapPointRef
 72
     1
331
E419
 73
     2
 91
        0
 40
1.0
 10
0.0
 20
0.0
 30
2.000000000000000E+50
 75
     0
  0
DIMASSOC
  5
E5CE
102
{ACAD_REACTORS
330
E5C2
102
}
330
E5C2
100
AcDbDimAssoc
330
E5B3
 90
        3
 70
     0
 71
     0
  1
AcDbOsnapPointRef
 72
    13
331
E419
 73
     2
 91
        0
 40
0.0
 10
0.0
 20
0.0
 30
2.000000000000000E+50
 75
     0
  1
AcDbOsnapPointRef
 72
    13
331
DF94
 73
     2
 91
        0
 40
0.0
 10
0.0
 20
0.0
 30
2.000000000000000E+50
 75
     0
  0
DIMASSOC
  5
E5EA
102
{ACAD_REACTORS
330
E5DE
102
}
330
E5DE
100
AcDbDimAssoc
330
E5CF
 90
        3
 70
     0
 71
     0
  1
AcDbOsnapPointRef
 72
    13
331
DF93
 73
     2
 91
        0
 40
0.0
 10
0.0
 20
0.0
 30
2.000000000000000E+50
 75
     0
  1
AcDbOsnapPointRef
 72
    13
331
DF94
 73
     2
 91
        0
 40
0.0
 10
0.0
 20
0.0
 30
2.000000000000000E+50
 75
     0
  0
DIMASSOC
  5
E602
102
{ACAD_REACTORS
330
E5F8
102
}
330
E5F8
100
AcDbDimAssoc
330
E5EB
 90
        3
 70
     0
 71
     0
  1
AcDbOsnapPointRef
 72
    13
331
DF7B
 73
     2
 91
        0
 40
0.0
 10
0.0
 20
0.0
 30
2.000000000000000E+50
 75
     0
  1
AcDbOsnapPointRef
 72
     8
331
DF79
 73
     2
 91
        0
 40
0.0
 10
0.0
 20
0.0
 30
0.0
 75
     1
  1
AcDbOsnapPointRef
 72
    13
331
DF7B
 73
     2
 91
        0
 40
0.0
 10
0.0
 20
0.0
 30
2.000000000000000E+50
 75
     0
  0
DIMASSOC
  5
E632
102
{ACAD_REACTORS
330
E628
102
}
330
E628
100
AcDbDimAssoc
330
E61B
 90
        3
 70
     0
 71
     0
  1
AcDbOsnapPointRef
 72
    13
331
DF43
 73
     2
 91
        0
 40
0.0
 10
0.0
 20
0.0
 30
2.000000000000000E+50
 75
     0
  1
AcDbOsnapPointRef
 72
     1
331
E1D0
 73
     2
 91
        0
 40
1.0
 10
0.0
 20
0.0
 30
2.000000000000000E+50
 75
     0
  0
DIMASSOC
  5
E64A
102
{ACAD_REACTORS
330
E640
102
}
330
E640
100
AcDbDimAssoc
330
E633
 90
        3
 70
     0
 71
     0
  1
AcDbOsnapPointRef
 72
     1
331
E1D0
 73
     2
 91
        0
 40
1.0
 10
0.0
 20
0.0
 30
2.000000000000000E+50
 75
     0
  1
AcDbOsnapPointRef
 72
     1
331
E1CF
 73
     2
 91
        0
 40
1.0
 10
0.0
 20
0.0
 30
2.000000000000000E+50
 75
     0
  0
DIMASSOC
  5
E67D
102
{ACAD_REACTORS
330
E673
102
}
330
E673
100
AcDbDimAssoc
330
E666
 90
        3
 70
     0
 71
     0
  1
AcDbOsnapPointRef
 72
     2
331
DF7E
 73
     2
 91
        0
 40
0.5
 10
0.0
 20
0.0
 30
0.0
 75
     0
  1
AcDbOsnapPointRef
 72
     1
331
DF76
 73
     2
 91
        0
 40
4.712388980384689
 10
0.0
 20
0.0
 30
2.000000000000000E+50
 75
     0
  0
DIMASSOC
  5
E699
102
{ACAD_REACTORS
330
E68D
102
}
330
E68D
100
AcDbDimAssoc
330
E67E
 90
        3
 70
     0
 71
     0
  1
AcDbOsnapPointRef
 72
    13
331
DF5A
 73
     2
 91
        0
 40
1.570796326794896
 10
0.0
 20
0.0
 30
2.000000000000000E+50
 75
     0
  1
AcDbOsnapPointRef
 72
    13
331
DF5C
 73
     2
 91
        0
 40
0.0
 10
0.0
 20
0.0
 30
2.000000000000000E+50
 75
     0
  0
DIMASSOC
  5
E6BE
102
{ACAD_REACTORS
330
E6B3
102
}
330
E6B3
100
AcDbDimAssoc
330
E6A5
 90
        3
 70
     0
 71
     0
  1
AcDbOsnapPointRef
 72
    13
331
DF5B
 73
     2
 91
        0
 40
3.141592653589793
 10
0.0
 20
0.0
 30
2.000000000000000E+50
 75
     0
  1
AcDbOsnapPointRef
 72
    13
331
DF5E
 73
     2
 91
        0
 40
0.0
 10
0.0
 20
0.0
 30
2.000000000000000E+50
 75
     0
  0
XRECORD
  5
EB7E
102
{ACAD_REACTORS
330
EB7D
102
}
330
EB7D
100
AcDbXrecord
280
     1
 40
1.25
  0
XRECORD
  5
EB7F
102
{ACAD_REACTORS
330
EB7D
102
}
330
EB7D
100
AcDbXrecord
280
     1
 40
1.570796326794896
  0
LAYOUT
  5
22
102
{ACAD_XDICTIONARY
360
5A2E
102
}
102
{ACAD_REACTORS
330
1A
102
}
330
1A
100
AcDbPlotSettings
  1

  2
DWG To PDF.pc3
  4
ISO_expand_A4_(210.00_x_297.00_MM)
  6

 40
5.793749809265136
 41
10.79374980926513
 42
5.793746948242187
 43
10.79376220703125
 44
210.0
 45
297.0
 46
1.838200313876342
 47
0.0
 48
-93.55499912504912
 49
0.0000002068213689
140
467.7750008749507
141
396.9000002068213
142
1.0
143
2.038142874745803
 70
  3764
 72
     1
 73
     1
 74
     4
  7
DKM.ctb
 75
     0
147
0.490642737754447
 76
     1
 77
     2
 78
   300
148
93.55499912504912
149
-0.0000002068213689
100
AcDbLayout
  1
Model
 70
     1
 71
     0
 10
0.0
 20
0.0
 11
12.0
 21
9.0
 12
0.0
 22
0.0
 32
0.0
 14
0.0
 24
0.0
 34
0.0
 15
0.0
 25
0.0
 35
0.0
146
0.0
 13
0.0
 23
0.0
 33
0.0
 16
1.0
 26
0.0
 36
0.0
 17
0.0
 27
1.0
 37
0.0
 76
     0
330
1F
331
5994
1001
ACAD_PSEXT
1000
DWG To PDF.pc3
1000
DWG To PDF
1000
파일
1000

1070
     0
  0
LAYOUT
  5
D3
102
{ACAD_REACTORS
330
1A
102
}
330
1A
100
AcDbPlotSettings
  1

  2
C:\Documents and Settings\basas\Application Data\Autodesk\AutoCAD 2005\R16.1\enu\plotters\Default Windows System Printer.pc3
  4

  6

 40
0.0
 41
0.0
 42
0.0
 43
0.0
 44
0.0
 45
0.0
 46
0.0
 47
0.0
 48
0.0
 49
0.0
140
0.0
141
0.0
142
1.0
143
1.0
 70
   688
 72
     0
 73
     0
 74
     5
  7

 75
    16
147
1.0
 76
     0
 77
     2
 78
   300
148
0.0
149
0.0
100
AcDbLayout
  1
배치1
 70
     1
 71
     1
 10
0.0
 20
0.0
 11
12.0
 21
9.0
 12
0.0
 22
0.0
 32
0.0
 14
0.0
 24
0.0
 34
0.0
 15
0.0
 25
0.0
 35
0.0
146
0.0
 13
0.0
 23
0.0
 33
0.0
 16
1.0
 26
0.0
 36
0.0
 17
0.0
 27
1.0
 37
0.0
 76
     0
330
D2
  0
LAYOUT
  5
D7
102
{ACAD_REACTORS
330
1A
102
}
330
1A
100
AcDbPlotSettings
  1

  2
C:\Documents and Settings\basas\Application Data\Autodesk\AutoCAD 2005\R16.1\enu\plotters\Default Windows System Printer.pc3
  4

  6

 40
0.0
 41
0.0
 42
0.0
 43
0.0
 44
0.0
 45
0.0
 46
0.0
 47
0.0
 48
0.0
 49
0.0
140
0.0
141
0.0
142
1.0
143
1.0
 70
   688
 72
     0
 73
     0
 74
     5
  7

 75
    16
147
1.0
 76
     0
 77
     2
 78
   300
148
0.0
149
0.0
100
AcDbLayout
  1
배치2
 70
     1
 71
     2
 10
0.0
 20
0.0
 11
12.0
 21
9.0
 12
0.0
 22
0.0
 32
0.0
 14
0.0
 24
0.0
 34
0.0
 15
0.0
 25
0.0
 35
0.0
146
0.0
 13
0.0
 23
0.0
 33
0.0
 16
1.0
 26
0.0
 36
0.0
 17
0.0
 27
1.0
 37
0.0
 76
     0
330
D6
  0
MATERIAL
  5
59A7
102
{ACAD_XDICTIONARY
360
59A8
102
}
102
{ACAD_REACTORS
330
6A
102
}
330
6A
100
AcDbMaterial
  1
ByBlock
 72
     0
 43
0.0008202099737533
 43
0.0
 43
0.0
 43
0.0
 43
0.0
 43
0.0008202099737533
 43
0.0
 43
0.0
 43
0.0
 43
0.0
 43
1.0
 43
0.0
 43
0.0
 43
0.0
 43
0.0
 43
1.0
 77
     0
 47
0.0008202099737533
 47
0.0
 47
0.0
 47
0.0
 47
0.0
 47
0.0008202099737533
 47
0.0
 47
0.0
 47
0.0
 47
0.0
 47
1.0
 47
0.0
 47
0.0
 47
0.0
 47
0.0
 47
1.0
171
     0
 49
0.0008202099737533
 49
0.0
 49
0.0
 49
0.0
 49
0.0
 49
0.0008202099737533
 49
0.0
 49
0.0
 49
0.0
 49
0.0
 49
1.0
 49
0.0
 49
0.0
 49
0.0
 49
0.0
 49
1.0
175
     0
142
0.0008202099737533
142
0.0
142
0.0
142
0.0
142
0.0
142
0.0008202099737533
142
0.0
142
0.0
142
0.0
142
0.0
142
1.0
142
0.0
142
0.0
142
0.0
142
0.0
142
1.0
179
     0
144
0.0008202099737533
144
0.0
144
0.0
144
0.0
144
0.0
144
0.0008202099737533
144
0.0
144
0.0
144
0.0
144
0.0
144
1.0
144
0.0
144
0.0
144
0.0
144
0.0
144
1.0
147
0.0008202099737533
147
0.0
147
0.0
147
0.0
147
0.0
147
0.0008202099737533
147
0.0
147
0.0
147
0.0
147
0.0
147
1.0
147
0.0
147
0.0
147
0.0
147
0.0
147
1.0
  0
MATERIAL
  5
599F
102
{ACAD_XDICTIONARY
360
59A0
102
}
102
{ACAD_REACTORS
330
6A
102
}
330
6A
100
AcDbMaterial
  1
ByLayer
 72
     0
 43
0.0008202099737533
 43
0.0
 43
0.0
 43
0.0
 43
0.0
 43
0.0008202099737533
 43
0.0
 43
0.0
 43
0.0
 43
0.0
 43
1.0
 43
0.0
 43
0.0
 43
0.0
 43
0.0
 43
1.0
 77
     0
 47
0.0008202099737533
 47
0.0
 47
0.0
 47
0.0
 47
0.0
 47
0.0008202099737533
 47
0.0
 47
0.0
 47
0.0
 47
0.0
 47
1.0
 47
0.0
 47
0.0
 47
0.0
 47
0.0
 47
1.0
171
     0
 49
0.0008202099737533
 49
0.0
 49
0.0
 49
0.0
 49
0.0
 49
0.0008202099737533
 49
0.0
 49
0.0
 49
0.0
 49
0.0
 49
1.0
 49
0.0
 49
0.0
 49
0.0
 49
0.0
 49
1.0
175
     0
142
0.0008202099737533
142
0.0
142
0.0
142
0.0
142
0.0
142
0.0008202099737533
142
0.0
142
0.0
142
0.0
142
0.0
142
1.0
142
0.0
142
0.0
142
0.0
142
0.0
142
1.0
179
     0
144
0.0008202099737533
144
0.0
144
0.0
144
0.0
144
0.0
144
0.0008202099737533
144
0.0
144
0.0
144
0.0
144
0.0
144
1.0
144
0.0
144
0.0
144
0.0
144
0.0
144
1.0
147
0.0008202099737533
147
0.0
147
0.0
147
0.0
147
0.0
147
0.0008202099737533
147
0.0
147
0.0
147
0.0
147
0.0
147
1.0
147
0.0
147
0.0
147
0.0
147
0.0
147
1.0
  0
MATERIAL
  5
FC
102
{ACAD_XDICTIONARY
360
EB81
102
}
102
{ACAD_REACTORS
330
6A
102
}
330
6A
100
AcDbMaterial
  1
Global
 73
     1
 78
     1
172
     1
176
     1
270
     1
274
     1
  0
MLEADERSTYLE
  5
59DB
102
{ACAD_XDICTIONARY
360
C3B1
102
}
102
{ACAD_REACTORS
330
59DA
330
E52E
102
}
330
59DA
100
AcDbMLeaderStyle
170
     2
171
     1
172
     0
 90
        2
 40
0.0
 41
0.0
173
     1
 91
-1056964608
340
14
 92
       -2
290
     1
 42
2.0
291
     0
 43
0.36
  3
Standard
 44
3.5
300

342
11
174
     5
178
     5
175
     1
176
     0
 93
-1023410174
 45
3.5
292
     0
297
     0
 46
4.0
 94
-1056964608
 47
1.0
 49
1.0
140
1.0
293
     1
141
0.0
294
     1
177
     0
142
1.0
295
     0
296
     1
143
0.125
1001
ACAD_MLEADERVER
1070
     2
  0
MLINESTYLE
  5
18
102
{ACAD_REACTORS
330
17
102
}
330
17
100
AcDbMlineStyle
  2
STANDARD
 70
     0
  3

 62
   256
 51
90.0
 52
90.0
 71
     2
 49
0.5
 62
   256
  6
BYLAYER
 49
-0.5
 62
   256
  6
BYLAYER
  0
ACDBPLACEHOLDER
  5
F
102
{ACAD_REACTORS
330
E
102
}
330
E
  0
SCALE
  5
59C9
102
{ACAD_REACTORS
330
59C8
102
}
330
59C8
100
AcDbScale
 70
     0
300
1:1
140
1.0
141
1.0
290
     1
  0
SCALE
  5
59CA
102
{ACAD_REACTORS
330
59C8
102
}
330
59C8
100
AcDbScale
 70
     0
300
1:2
140
1.0
141
2.0
290
     0
  0
SCALE
  5
59CB
102
{ACAD_REACTORS
330
59C8
102
}
330
59C8
100
AcDbScale
 70
     0
300
1:4
140
1.0
141
4.0
290
     0
  0
SCALE
  5
59CC
102
{ACAD_REACTORS
330
59C8
102
}
330
59C8
100
AcDbScale
 70
     0
300
1:5
140
1.0
141
5.0
290
     0
  0
SCALE
  5
59CD
102
{ACAD_REACTORS
330
59C8
102
}
330
59C8
100
AcDbScale
 70
     0
300
1:8
140
1.0
141
8.0
290
     0
  0
SCALE
  5
59CE
102
{ACAD_REACTORS
330
59C8
102
}
330
59C8
100
AcDbScale
 70
     0
300
1:10
140
1.0
141
10.0
290
     0
  0
SCALE
  5
59CF
102
{ACAD_REACTORS
330
59C8
102
}
330
59C8
100
AcDbScale
 70
     0
300
1:16
140
1.0
141
16.0
290
     0
  0
SCALE
  5
59D0
102
{ACAD_REACTORS
330
59C8
102
}
330
59C8
100
AcDbScale
 70
     0
300
1:20
140
1.0
141
20.0
290
     0
  0
SCALE
  5
59D1
102
{ACAD_REACTORS
330
59C8
102
}
330
59C8
100
AcDbScale
 70
     0
300
1:30
140
1.0
141
30.0
290
     0
  0
SCALE
  5
59D2
102
{ACAD_REACTORS
330
59C8
102
}
330
59C8
100
AcDbScale
 70
     0
300
1:40
140
1.0
141
40.0
290
     0
  0
SCALE
  5
59D3
102
{ACAD_REACTORS
330
59C8
102
}
330
59C8
100
AcDbScale
 70
     0
300
1:50
140
1.0
141
50.0
290
     0
  0
SCALE
  5
59D4
102
{ACAD_REACTORS
330
59C8
102
}
330
59C8
100
AcDbScale
 70
     0
300
1:100
140
1.0
141
100.0
290
     0
  0
SCALE
  5
59D5
102
{ACAD_REACTORS
330
59C8
102
}
330
59C8
100
AcDbScale
 70
     0
300
2:1
140
2.0
141
1.0
290
     0
  0
SCALE
  5
59D6
102
{ACAD_REACTORS
330
59C8
102
}
330
59C8
100
AcDbScale
 70
     0
300
4:1
140
4.0
141
1.0
290
     0
  0
SCALE
  5
59D7
102
{ACAD_REACTORS
330
59C8
102
}
330
59C8
100
AcDbScale
 70
     0
300
8:1
140
8.0
141
1.0
290
     0
  0
SCALE
  5
59D8
102
{ACAD_REACTORS
330
59C8
102
}
330
59C8
100
AcDbScale
 70
     0
300
10:1
140
10.0
141
1.0
290
     0
  0
SCALE
  5
59D9
102
{ACAD_REACTORS
330
59C8
102
}
330
59C8
100
AcDbScale
 70
     0
300
100:1
140
100.0
141
1.0
290
     0
  0
TABLESTYLE
  5
7F
102
{ACAD_XDICTIONARY
360
5A78
102
}
102
{ACAD_REACTORS
330
7E
102
}
330
7E
100
AcDbTableStyle
  3
Standard
 70
     0
 71
     0
 40
1.5
 41
1.5
280
     0
281
     0
  7
Standard
140
4.5
170
     2
 62
     0
 63
     7
283
     0
274
    -2
284
     1
 64
     0
275
    -2
285
     1
 65
     0
276
    -2
286
     1
 66
     0
277
    -2
287
     1
 67
     0
278
    -2
288
     1
 68
     0
279
    -2
289
     1
 69
     0
  7
Standard
140
6.0
170
     5
 62
     0
 63
     7
283
     0
274
    -2
284
     1
 64
     0
275
    -2
285
     1
 65
     0
276
    -2
286
     1
 66
     0
277
    -2
287
     1
 67
     0
278
    -2
288
     1
 68
     0
279
    -2
289
     1
 69
     0
  7
Standard
140
4.5
170
     5
 62
     0
 63
     7
283
     0
274
    -2
284
     1
 64
     0
275
    -2
285
     1
 65
     0
276
    -2
286
     1
 66
     0
277
    -2
287
     1
 67
     0
278
    -2
288
     1
 68
     0
279
    -2
289
     1
 69
     0
  0
VISUALSTYLE
  5
59B5
102
{ACAD_XDICTIONARY
360
EB35
102
}
102
{ACAD_REACTORS
330
59AF
102
}
330
59AF
100
AcDbVisualStyle
  2
2dWireframe
 70
     4
 71
     0
 72
     2
 73
     0
 90
        0
 40
-0.6
 41
-30.0
 62
     5
 63
     7
421
 16777215
 74
     1
 91
        4
 64
     7
 65
   257
 75
     1
175
     1
 42
1.0
 92
        0
 66
   257
 43
1.0
 76
     1
 77
     6
 78
     2
 67
     7
 79
     5
170
     0
171
     0
290
     0
174
     0
 93
        1
 44
0.0
173
     0
291
     0
 45
0.0
1001
ACAD
1000
AcDbSavedByObjectVersion
1070
     0
  0
VISUALSTYLE
  5
C3FC
102
{ACAD_XDICTIONARY
360
EB61
102
}
102
{ACAD_REACTORS
330
59AF
102
}
330
59AF
100
AcDbVisualStyle
  2
3D Hidden
 70
     6
 71
     1
 72
     2
 73
     2
 90
        0
 40
-0.6
 41
-30.0
 62
     5
 63
     7
421
 16777215
 74
     2
 91
        2
 64
     7
 65
   257
 75
     2
175
     1
 42
40.0
 92
        0
 66
   257
 43
1.0
 76
     1
 77
     6
 78
     2
 67
     7
 79
     3
170
     0
171
     0
290
     0
174
     0
 93
        1
 44
0.0
173
     0
291
     0
 45
0.0
1001
ACAD
1000
AcDbSavedByObjectVersion
1070
     0
  0
VISUALSTYLE
  5
C3FB
102
{ACAD_XDICTIONARY
360
EB5F
102
}
102
{ACAD_REACTORS
330
59AF
102
}
330
59AF
100
AcDbVisualStyle
  2
3dWireframe
 70
     5
 71
     0
 72
     2
 73
     0
 90
        0
 40
-0.6
 41
-30.0
 62
     5
 63
     7
421
 16777215
 74
     1
 91
        4
 64
     7
 65
   257
 75
     1
175
     1
 42
1.0
 92
        0
 66
   257
 43
1.0
 76
     1
 77
     6
 78
     2
 67
     7
 79
     5
170
     0
171
     0
290
     0
174
     0
 93
        1
 44
0.0
173
     0
291
     0
 45
0.0
1001
ACAD
1000
AcDbSavedByObjectVersion
1070
     0
  0
VISUALSTYLE
  5
59B4
102
{ACAD_XDICTIONARY
360
EB33
102
}
102
{ACAD_REACTORS
330
59AF
102
}
330
59AF
100
AcDbVisualStyle
  2
Basic
 70
     7
 71
     1
 72
     0
 73
     1
 90
        0
 40
-0.6
 41
-30.0
 62
     5
 63
     7
421
 16777215
 74
     0
 91
        4
 64
     7
 65
   257
 75
     1
175
     1
 42
1.0
 92
        8
 66
     7
 43
1.0
 76
     1
 77
     6
 78
     2
 67
     7
 79
     5
170
     0
171
     0
290
     0
174
     0
 93
        1
 44
0.0
173
     0
291
     1
 45
0.0
1001
ACAD
1000
AcDbSavedByObjectVersion
1070
     0
  0
VISUALSTYLE
  5
59BB
102
{ACAD_XDICTIONARY
360
EB41
102
}
102
{ACAD_REACTORS
330
59AF
102
}
330
59AF
100
AcDbVisualStyle
  2
Brighten
 70
    12
 71
     2
 72
     2
 73
     0
 90
        0
 40
-0.6
 41
-30.0
 62
     5
 63
     7
421
 16777215
 74
     1
 91
        4
 64
     7
 65
   257
 75
     1
175
     1
 42
1.0
 92
        8
 66
     7
 43
1.0
 76
     1
 77
     6
 78
     2
 67
     7
 79
     5
170
     0
171
     0
290
     0
174
     0
 93
        1
 44
50.0
173
     0
291
     1
 45
0.0
1001
ACAD
1000
AcDbSavedByObjectVersion
1070
     0
  0
VISUALSTYLE
  5
59BF
102
{ACAD_XDICTIONARY
360
EB49
102
}
102
{ACAD_REACTORS
330
59AF
102
}
330
59AF
100
AcDbVisualStyle
  2
ColorChange
 70
    16
 71
     2
 72
     2
 73
     3
 90
        0
 40
-0.6
 41
-30.0
 62
     5
 63
     8
421
  8421504
 74
     1
 91
        4
 64
     7
 65
   257
 75
     1
175
     1
 42
1.0
 92
        8
 66
     8
424
  8421504
 43
1.0
 76
     1
 77
     6
 78
     2
 67
     7
 79
     5
170
     0
171
     0
290
     0
174
     0
 93
        1
 44
0.0
173
     0
291
     1
 45
0.0
1001
ACAD
1000
AcDbSavedByObjectVersion
1070
     0
  0
VISUALSTYLE
  5
59B8
102
{ACAD_XDICTIONARY
360
EB3B
102
}
102
{ACAD_REACTORS
330
59AF
102
}
330
59AF
100
AcDbVisualStyle
  2
Conceptual
 70
     9
 71
     3
 72
     2
 73
     0
 90
        0
 40
-0.6
 41
-30.0
 62
     5
 63
     7
421
 16777215
 74
     2
 91
        2
 64
     7
 65
   257
 75
     1
175
     1
 42
179.0
 92
        8
 66
     7
 43
1.0
 76
     1
 77
     6
 78
     2
 67
     7
 79
     3
170
     0
171
     0
290
     0
174
     0
 93
        1
 44
0.0
173
     0
291
     0
 45
0.0
1001
ACAD
1000
AcDbSavedByObjectVersion
1070
     0
  0
VISUALSTYLE
  5
59BA
102
{ACAD_XDICTIONARY
360
EB3F
102
}
102
{ACAD_REACTORS
330
59AF
102
}
330
59AF
100
AcDbVisualStyle
  2
Dim
 70
    11
 71
     2
 72
     2
 73
     0
 90
        0
 40
-0.6
 41
-30.0
 62
     5
 63
     7
421
 16777215
 74
     1
 91
        4
 64
     7
 65
   257
 75
     1
175
     1
 42
1.0
 92
        8
 66
     7
 43
1.0
 76
     1
 77
     6
 78
     2
 67
     7
 79
     5
170
     0
171
     0
290
     0
174
     0
 93
        1
 44
-50.0
173
     0
291
     1
 45
0.0
1001
ACAD
1000
AcDbSavedByObjectVersion
1070
     0
  0
VISUALSTYLE
  5
59C7
102
{ACAD_XDICTIONARY
360
EB59
102
}
102
{ACAD_REACTORS
330
59AF
102
}
330
59AF
100
AcDbVisualStyle
  2
EdgeColorOff
 70
    22
 71
     2
 72
     2
 73
     0
 90
        0
 40
-0.6
 41
-30.0
 62
     5
 63
     7
421
 16777215
 74
     1
 91
        4
 64
     7
 65
   257
 75
     1
175
     1
 42
1.0
 92
        8
 66
     7
 43
1.0
 76
     1
 77
     6
 78
     2
 67
     7
 79
     5
170
     0
171
     0
290
     0
174
     0
 93
        1
 44
0.0
173
     0
291
     1
 45
0.0
1001
ACAD
1000
AcDbSavedByObjectVersion
1070
     0
  0
VISUALSTYLE
  5
59BE
102
{ACAD_XDICTIONARY
360
EB47
102
}
102
{ACAD_REACTORS
330
59AF
102
}
330
59AF
100
AcDbVisualStyle
  2
Facepattern
 70
    15
 71
     2
 72
     2
 73
     0
 90
        0
 40
-0.6
 41
-30.0
 62
     5
 63
     7
421
 16777215
 74
     1
 91
        4
 64
     7
 65
   257
 75
     1
175
     1
 42
1.0
 92
        8
 66
     7
 43
1.0
 76
     1
 77
     6
 78
     2
 67
     7
 79
     5
170
     0
171
     0
290
     0
174
     0
 93
        1
 44
0.0
173
     0
291
     1
 45
0.0
1001
ACAD
1000
AcDbSavedByObjectVersion
1070
     0
  0
VISUALSTYLE
  5
59B0
102
{ACAD_XDICTIONARY
360
EB2B
102
}
102
{ACAD_REACTORS
330
59AF
102
}
330
59AF
100
AcDbVisualStyle
  2
Flat
 70
     0
 71
     2
 72
     1
 73
     1
 90
        2
 40
-0.6
 41
30.0
 62
     5
 63
     7
421
 16777215
 74
     0
 91
        0
 64
     7
 65
   257
 75
     1
175
     1
 42
1.0
 92
        8
 66
     7
 43
1.0
 76
     1
 77
     6
 78
     2
 67
     7
 79
     5
170
     0
171
     0
290
     0
174
     0
 93
       13
 44
0.0
173
     0
291
     1
 45
0.0
1001
ACAD
1000
AcDbSavedByObjectVersion
1070
     0
  0
VISUALSTYLE
  5
59B1
102
{ACAD_XDICTIONARY
360
EB2D
102
}
102
{ACAD_REACTORS
330
59AF
102
}
330
59AF
100
AcDbVisualStyle
  2
FlatWithEdges
 70
     1
 71
     2
 72
     1
 73
     1
 90
        2
 40
-0.6
 41
30.0
 62
     5
 63
     7
421
 16777215
 74
     1
 91
        0
 64
     7
 65
   257
 75
     1
175
     1
 42
1.0
 92
        0
 66
   257
 43
1.0
 76
     1
 77
     6
 78
     2
 67
     7
 79
     5
170
     0
171
     0
290
     0
174
     0
 93
       13
 44
0.0
173
     0
291
     1
 45
0.0
1001
ACAD
1000
AcDbSavedByObjectVersion
1070
     0
  0
VISUALSTYLE
  5
59B2
102
{ACAD_XDICTIONARY
360
EB2F
102
}
102
{ACAD_REACTORS
330
59AF
102
}
330
59AF
100
AcDbVisualStyle
  2
Gouraud
 70
     2
 71
     2
 72
     2
 73
     1
 90
        2
 40
-0.6
 41
30.0
 62
     5
 63
     7
421
 16777215
 74
     0
 91
        0
 64
     7
 65
   257
 75
     1
175
     1
 42
1.0
 92
        0
 66
     7
 43
1.0
 76
     1
 77
     6
 78
     2
 67
     7
 79
     5
170
     0
171
     0
290
     0
174
     0
 93
       13
 44
0.0
173
     0
291
     1
 45
0.0
1001
ACAD
1000
AcDbSavedByObjectVersion
1070
     0
  0
VISUALSTYLE
  5
59B3
102
{ACAD_XDICTIONARY
360
EB31
102
}
102
{ACAD_REACTORS
330
59AF
102
}
330
59AF
100
AcDbVisualStyle
  2
GouraudWithEdges
 70
     3
 71
     2
 72
     2
 73
     1
 90
        2
 40
-0.6
 41
30.0
 62
     5
 63
     7
421
 16777215
 74
     1
 91
        0
 64
     7
 65
   257
 75
     1
175
     1
 42
1.0
 92
        0
 66
   257
 43
1.0
 76
     1
 77
     6
 78
     2
 67
     7
 79
     5
170
     0
171
     0
290
     0
174
     0
 93
       13
 44
0.0
173
     0
291
     1
 45
0.0
1001
ACAD
1000
AcDbSavedByObjectVersion
1070
     0
  0
VISUALSTYLE
  5
59B7
102
{ACAD_XDICTIONARY
360
EB39
102
}
102
{ACAD_REACTORS
330
59AF
102
}
330
59AF
100
AcDbVisualStyle
  2
Hidden
 70
     6
 71
     1
 72
     2
 73
     2
 90
        0
 40
-0.6
 41
-30.0
 62
     5
 63
     7
421
 16777215
 74
     2
 91
        2
 64
     7
 65
   257
 75
     2
175
     1
 42
40.0
 92
        0
 66
   257
 43
1.0
 76
     1
 77
     6
 78
     2
 67
     7
 79
     3
170
     0
171
     0
290
     0
174
     0
 93
        1
 44
0.0
173
     0
291
     0
 45
0.0
1001
ACAD
1000
AcDbSavedByObjectVersion
1070
     0
  0
VISUALSTYLE
  5
59C5
102
{ACAD_XDICTIONARY
360
EB55
102
}
102
{ACAD_REACTORS
330
59AF
102
}
330
59AF
100
AcDbVisualStyle
  2
JitterOff
 70
    20
 71
     2
 72
     2
 73
     0
 90
        0
 40
-0.6
 41
-30.0
 62
     5
 63
     7
421
 16777215
 74
     1
 91
        4
 64
     7
 65
   257
 75
     1
175
     1
 42
1.0
 92
       10
 66
     7
 43
1.0
 76
     1
 77
     6
 78
     2
 67
     7
 79
     5
170
     0
171
     0
290
     0
174
     0
 93
        1
 44
0.0
173
     0
291
     1
 45
0.0
1001
ACAD
1000
AcDbSavedByObjectVersion
1070
     0
  0
VISUALSTYLE
  5
59BD
102
{ACAD_XDICTIONARY
360
EB45
102
}
102
{ACAD_REACTORS
330
59AF
102
}
330
59AF
100
AcDbVisualStyle
  2
Linepattern
 70
    14
 71
     2
 72
     2
 73
     0
 90
        0
 40
-0.6
 41
-30.0
 62
     5
 63
     7
421
 16777215
 74
     1
 91
        4
 64
     7
 65
   257
 75
     7
175
     7
 42
1.0
 92
        8
 66
     7
 43
1.0
 76
     1
 77
     6
 78
     2
 67
     7
 79
     5
170
     0
171
     0
290
     0
174
     0
 93
        1
 44
0.0
173
     0
291
     1
 45
0.0
1001
ACAD
1000
AcDbSavedByObjectVersion
1070
     0
  0
VISUALSTYLE
  5
59C6
102
{ACAD_XDICTIONARY
360
EB57
102
}
102
{ACAD_REACTORS
330
59AF
102
}
330
59AF
100
AcDbVisualStyle
  2
OverhangOff
 70
    21
 71
     2
 72
     2
 73
     0
 90
        0
 40
-0.6
 41
-30.0
 62
     5
 63
     7
421
 16777215
 74
     1
 91
        4
 64
     7
 65
   257
 75
     1
175
     1
 42
1.0
 92
        9
 66
     7
 43
1.0
 76
     1
 77
     6
 78
     2
 67
     7
 79
     5
170
     0
171
     0
290
     0
174
     0
 93
        1
 44
0.0
173
     0
291
     1
 45
0.0
1001
ACAD
1000
AcDbSavedByObjectVersion
1070
     0
  0
VISUALSTYLE
  5
59B9
102
{ACAD_XDICTIONARY
360
EB3D
102
}
102
{ACAD_REACTORS
330
59AF
102
}
330
59AF
100
AcDbVisualStyle
  2
Realistic
 70
     8
 71
     2
 72
     2
 73
     0
 90
        2
 40
-0.6
 41
30.0
 62
     5
 63
     7
421
 16777215
 74
     0
 91
        0
 64
     7
 65
   257
 75
     1
175
     1
 42
1.0
 92
        8
 66
   257
 43
1.0
 76
     1
 77
     6
 78
     2
 67
     7
 79
     3
170
     0
171
     0
290
     0
174
     0
 93
       13
 44
0.0
173
     0
291
     0
 45
0.0
1001
ACAD
1000
AcDbSavedByObjectVersion
1070
     0
  0
VISUALSTYLE
  5
59C4
102
{ACAD_XDICTIONARY
360
EB53
102
}
102
{ACAD_REACTORS
330
59AF
102
}
330
59AF
100
AcDbVisualStyle
  2
Shaded
 70
    27
 71
     2
 72
     2
 73
     1
 90
        2
 40
-0.6
 41
30.0
 62
     5
 63
     7
421
 16777215
 74
     0
 91
        4
 64
     7
 65
   257
 75
     1
175
     1
 42
1.0
 92
        8
 66
   257
 43
1.0
 76
     1
 77
     6
 78
     2
 67
     8
425
  7895160
 79
     3
170
     0
171
     0
290
     0
174
     0
 93
        5
 44
0.0
173
     0
291
     0
 45
0.0
1001
ACAD
1000
AcDbSavedByObjectVersion
1070
     0
  0
VISUALSTYLE
  5
59C3
102
{ACAD_XDICTIONARY
360
EB51
102
}
102
{ACAD_REACTORS
330
59AF
102
}
330
59AF
100
AcDbVisualStyle
  2
Shaded with edges
 70
    26
 71
     2
 72
     2
 73
     1
 90
        2
 40
-0.6
 41
30.0
 62
     5
 63
     7
421
 16777215
 74
     1
 91
       10
 64
     7
 65
   257
 75
     2
175
     1
 42
1.0
 92
        8
 66
   257
 43
1.0
 76
     1
 77
     6
 78
     2
 67
     7
 79
     3
170
     0
171
     0
290
     0
174
     0
 93
        5
 44
0.0
173
     0
291
     0
 45
0.0
1001
ACAD
1000
AcDbSavedByObjectVersion
1070
     0
  0
VISUALSTYLE
  5
59C0
102
{ACAD_XDICTIONARY
360
EB4B
102
}
102
{ACAD_REACTORS
330
59AF
102
}
330
59AF
100
AcDbVisualStyle
  2
Shades of Gray
 70
    23
 71
     2
 72
     2
 73
     3
 90
        0
 40
-0.6
 41
-30.0
 62
     5
 63
     7
421
 16777215
 74
     2
 91
        2
 64
     7
 65
     7
 75
     1
175
     1
 42
40.0
 92
        8
 66
     7
 43
1.0
 76
     1
 77
     6
 78
     2
 67
     7
 79
     3
170
     0
171
     0
290
     0
174
     0
 93
        1
 44
0.0
173
     0
291
     0
 45
0.0
1001
ACAD
1000
AcDbSavedByObjectVersion
1070
     0
  0
VISUALSTYLE
  5
59C1
102
{ACAD_XDICTIONARY
360
EB4D
102
}
102
{ACAD_REACTORS
330
59AF
102
}
330
59AF
100
AcDbVisualStyle
  2
Sketchy
 70
    24
 71
     1
 72
     2
 73
     2
 90
        0
 40
-0.6
 41
-30.0
 62
     5
 63
     7
421
 16777215
 74
     2
 91
        2
 64
     7
 65
     7
 75
     1
175
     1
 42
40.0
 92
       11
 66
     7
 43
1.0
 76
     1
 77
     6
 78
     2
 67
     7
 79
     6
170
     0
171
     0
290
     0
174
     0
 93
        1
 44
0.0
173
     0
291
     0
 45
0.0
1001
ACAD
1000
AcDbSavedByObjectVersion
1070
     0
  0
VISUALSTYLE
  5
59BC
102
{ACAD_XDICTIONARY
360
EB43
102
}
102
{ACAD_REACTORS
330
59AF
102
}
330
59AF
100
AcDbVisualStyle
  2
Thicken
 70
    13
 71
     2
 72
     2
 73
     0
 90
        0
 40
-0.6
 41
-30.0
 62
     5
 63
     7
421
 16777215
 74
     1
 91
        4
 64
     7
 65
   257
 75
     1
175
     1
 42
1.0
 92
       12
 66
     7
 43
1.0
 76
     1
 77
     6
 78
     2
 67
     7
 79
     5
170
     0
171
     0
290
     0
174
     0
 93
        1
 44
0.0
173
     0
291
     1
 45
0.0
1001
ACAD
1000
AcDbSavedByObjectVersion
1070
     0
  0
VISUALSTYLE
  5
59B6
102
{ACAD_XDICTIONARY
360
EB37
102
}
102
{ACAD_REACTORS
330
59AF
102
}
330
59AF
100
AcDbVisualStyle
  2
Wireframe
 70
     5
 71
     0
 72
     2
 73
     0
 90
        0
 40
-0.6
 41
-30.0
 62
     5
 63
     7
421
 16777215
 74
     1
 91
        4
 64
     7
 65
   257
 75
     1
175
     1
 42
1.0
 92
        0
 66
   257
 43
1.0
 76
     1
 77
     6
 78
     2
 67
     7
 79
     3
170
     0
171
     0
290
     0
174
     0
 93
        1
 44
0.0
173
     0
291
     0
 45
0.0
1001
ACAD
1000
AcDbSavedByObjectVersion
1070
     0
  0
VISUALSTYLE
  5
59C2
102
{ACAD_XDICTIONARY
360
EB4F
102
}
102
{ACAD_REACTORS
330
59AF
102
}
330
59AF
100
AcDbVisualStyle
  2
X-Ray
 70
    25
 71
     2
 72
     2
 73
     1
 90
        1
 40
0.5
 41
-30.0
 62
     5
 63
     7
421
 16777215
 74
     1
 91
        0
 64
     7
 65
   257
 75
     1
175
     1
 42
1.0
 92
        8
 66
     7
 43
1.0
 76
     1
 77
     6
 78
     2
 67
     7
 79
     3
170
     0
171
     0
290
     0
174
     0
 93
       13
 44
0.0
173
     0
291
     0
 45
0.0
1001
ACAD
1000
AcDbSavedByObjectVersion
1070
     0
  0
DICTIONARYVAR
  5
5AB7
102
{ACAD_REACTORS
330
5E
102
}
330
5E
100
DictionaryVariables
280
     0
  1
1:1
  0
DICTIONARYVAR
  5
5AB6
102
{ACAD_REACTORS
330
5E
102
}
330
5E
100
DictionaryVariables
280
     0
  1
STANDARD
  0
DICTIONARYVAR
  5
84
102
{ACAD_REACTORS
330
5E
102
}
330
5E
100
DictionaryVariables
280
     0
  1
STANDARD
  0
DICTIONARYVAR
  5
5F
102
{ACAD_REACTORS
330
5E
102
}
330
5E
100
DictionaryVariables
280
     0
  1
2
  0
DICTIONARYVAR
  5
63
102
{ACAD_REACTORS
330
5E
102
}
330
5E
100
DictionaryVariables
280
     0
  1
1
  0
DICTIONARYVAR
  5
599D
102
{ACAD_REACTORS
330
5E
102
}
330
5E
100
DictionaryVariables
280
     0
  1

  0
DICTIONARY
  5
E535
102
{ACAD_REACTORS
330
E534
102
}
330
E534
100
AcDbDictionary
281
     1
  0
DICTIONARY
  5
5A2E
330
22
100
AcDbDictionary
280
     1
281
     1
  3
ADSK_XREC_LAYOUTTHUMBNAIL
360
5A2F
  0
DICTIONARY
  5
59A8
330
59A7
100
AcDbDictionary
280
     1
281
     1
  3
ACAD_XREC_ROUNDTRIP
360
EB84
  3
BUMPTILE
360
59AA
  3
DIFFUSETILE
360
59A9
  3
OPACITYTILE
360
59AD
  3
REFLECTIONTILE
360
59AC
  3
REFRACTIONTILE
360
59AE
  3
SPECULARTILE
360
59AB
  0
DICTIONARY
  5
59A0
330
599F
100
AcDbDictionary
280
     1
281
     1
  3
ACAD_XREC_ROUNDTRIP
360
EB83
  3
BUMPTILE
360
59A2
  3
DIFFUSETILE
360
59A1
  3
OPACITYTILE
360
59A5
  3
REFLECTIONTILE
360
59A4
  3
REFRACTIONTILE
360
59A6
  3
SPECULARTILE
360
59A3
  0
DICTIONARY
  5
EB81
330
FC
100
AcDbDictionary
280
     1
281
     1
  3
ACAD_XREC_ROUNDTRIP
360
EB82
  0
DICTIONARY
  5
C3B1
330
59DB
100
AcDbDictionary
280
     1
281
     1
  3
ACAD_XREC_ROUNDTRIP
360
C3B2
  0
DICTIONARY
  5
5A78
330
7F
100
AcDbDictionary
280
     1
281
     1
  3
ACAD_ROUNDTRIP_2008_TABLESTYLE_CELLSTYLEMAP
360
EB78
  3
ACAD_XREC_ROUNDTRIP
360
EB80
  0
DICTIONARY
  5
EB35
330
59B5
100
AcDbDictionary
280
     1
281
     1
  3
ACAD_XREC_ROUNDTRIP
360
EB36
  0
DICTIONARY
  5
EB61
330
C3FC
100
AcDbDictionary
280
     1
281
     1
  3
ACAD_XREC_ROUNDTRIP
360
EB62
  0
DICTIONARY
  5
EB5F
330
C3FB
100
AcDbDictionary
280
     1
281
     1
  3
ACAD_XREC_ROUNDTRIP
360
EB60
  0
DICTIONARY
  5
EB33
330
59B4
100
AcDbDictionary
280
     1
281
     1
  3
ACAD_XREC_ROUNDTRIP
360
EB34
  0
DICTIONARY
  5
EB41
330
59BB
100
AcDbDictionary
280
     1
281
     1
  3
ACAD_XREC_ROUNDTRIP
360
EB42
  0
DICTIONARY
  5
EB49
330
59BF
100
AcDbDictionary
280
     1
281
     1
  3
ACAD_XREC_ROUNDTRIP
360
EB4A
  0
DICTIONARY
  5
EB3B
330
59B8
100
AcDbDictionary
280
     1
281
     1
  3
ACAD_XREC_ROUNDTRIP
360
EB3C
  0
DICTIONARY
  5
EB3F
330
59BA
100
AcDbDictionary
280
     1
281
     1
  3
ACAD_XREC_ROUNDTRIP
360
EB40
  0
DICTIONARY
  5
EB59
330
59C7
100
AcDbDictionary
280
     1
281
     1
  3
ACAD_XREC_ROUNDTRIP
360
EB5A
  0
DICTIONARY
  5
EB47
330
59BE
100
AcDbDictionary
280
     1
281
     1
  3
ACAD_XREC_ROUNDTRIP
360
EB48
  0
DICTIONARY
  5
EB2B
330
59B0
100
AcDbDictionary
280
     1
281
     1
  3
ACAD_XREC_ROUNDTRIP
360
EB2C
  0
DICTIONARY
  5
EB2D
330
59B1
100
AcDbDictionary
280
     1
281
     1
  3
ACAD_XREC_ROUNDTRIP
360
EB2E
  0
DICTIONARY
  5
EB2F
330
59B2
100
AcDbDictionary
280
     1
281
     1
  3
ACAD_XREC_ROUNDTRIP
360
EB30
  0
DICTIONARY
  5
EB31
330
59B3
100
AcDbDictionary
280
     1
281
     1
  3
ACAD_XREC_ROUNDTRIP
360
EB32
  0
DICTIONARY
  5
EB39
330
59B7
100
AcDbDictionary
280
     1
281
     1
  3
ACAD_XREC_ROUNDTRIP
360
EB3A
  0
DICTIONARY
  5
EB55
330
59C5
100
AcDbDictionary
280
     1
281
     1
  3
ACAD_XREC_ROUNDTRIP
360
EB56
  0
DICTIONARY
  5
EB45
330
59BD
100
AcDbDictionary
280
     1
281
     1
  3
ACAD_XREC_ROUNDTRIP
360
EB46
  0
DICTIONARY
  5
EB57
330
59C6
100
AcDbDictionary
280
     1
281
     1
  3
ACAD_XREC_ROUNDTRIP
360
EB58
  0
DICTIONARY
  5
EB3D
330
59B9
100
AcDbDictionary
280
     1
281
     1
  3
ACAD_XREC_ROUNDTRIP
360
EB3E
  0
DICTIONARY
  5
EB53
330
59C4
100
AcDbDictionary
280
     1
281
     1
  3
ACAD_XREC_ROUNDTRIP
360
EB54
  0
DICTIONARY
  5
EB51
330
59C3
100
AcDbDictionary
280
     1
281
     1
  3
ACAD_XREC_ROUNDTRIP
360
EB52
  0
DICTIONARY
  5
EB4B
330
59C0
100
AcDbDictionary
280
     1
281
     1
  3
ACAD_XREC_ROUNDTRIP
360
EB4C
  0
DICTIONARY
  5
EB4D
330
59C1
100
AcDbDictionary
280
     1
281
     1
  3
ACAD_XREC_ROUNDTRIP
360
EB4E
  0
DICTIONARY
  5
EB43
330
59BC
100
AcDbDictionary
280
     1
281
     1
  3
ACAD_XREC_ROUNDTRIP
360
EB44
  0
DICTIONARY
  5
EB37
330
59B6
100
AcDbDictionary
280
     1
281
     1
  3
ACAD_XREC_ROUNDTRIP
360
EB38
  0
DICTIONARY
  5
EB4F
330
59C2
100
AcDbDictionary
280
     1
281
     1
  3
ACAD_XREC_ROUNDTRIP
360
EB50
  0
XRECORD
  5
5A2F
102
{ACAD_REACTORS
330
5A2E
102
}
330
5A2E
100
AcDbXrecord
280
     1
310
280000000001000076000000010008000000000000760000000000000000000000010000000000000000000000000000FFFFFF000000000000000000000000000000000000000000000000000000000000000000330000006600000099000000CC000000FF00000000330000333300006633000099330000CC330000FF3300
310
0000660000336600006666000099660000CC660000FF66000000990000339900006699000099990000CC990000FF99000000CC000033CC000066CC000099CC0000CCCC0000FFCC000000FF000033FF000066FF000099FF0000CCFF0000FFFF000000003300330033006600330099003300CC003300FF003300003333003333
310
33006633330099333300CC333300FF33330000663300336633006666330099663300CC663300FF66330000993300339933006699330099993300CC993300FF99330000CC330033CC330066CC330099CC3300CCCC3300FFCC330000FF330033FF330066FF330099FF3300CCFF3300FFFF330000006600330066006600660099
310
006600CC006600FF00660000336600333366006633660099336600CC336600FF33660000666600336666006666660099666600CC666600FF66660000996600339966006699660099996600CC996600FF99660000CC660033CC660066CC660099CC6600CCCC6600FFCC660000FF660033FF660066FF660099FF6600CCFF6600
310
FFFF660000009900330099006600990099009900CC009900FF00990000339900333399006633990099339900CC339900FF33990000669900336699006666990099669900CC669900FF66990000999900339999006699990099999900CC999900FF99990000CC990033CC990066CC990099CC9900CCCC9900FFCC990000FF99
310
0033FF990066FF990099FF9900CCFF9900FFFF99000000CC003300CC006600CC009900CC00CC00CC00FF00CC000033CC003333CC006633CC009933CC00CC33CC00FF33CC000066CC003366CC006666CC009966CC00CC66CC00FF66CC000099CC003399CC006699CC009999CC00CC99CC00FF99CC0000CCCC0033CCCC0066CC
310
CC0099CCCC00CCCCCC00FFCCCC0000FFCC0033FFCC0066FFCC0099FFCC00CCFFCC00FFFFCC000000FF003300FF006600FF009900FF00CC00FF00FF00FF000033FF003333FF006633FF009933FF00CC33FF00FF33FF000066FF003366FF006666FF009966FF00CC66FF00FF66FF000099FF003399FF006699FF009999FF00CC
310
99FF00FF99FF0000CCFF0033CCFF0066CCFF0099CCFF00CCCCFF00FFCCFF0000FFFF0033FFFF0066FFFF0099FFFF00CCFFFF00FFFFFF00000000000D0D0D001A1A1A00282828003535350043434300505050005D5D5D006B6B6B00787878008686860093939300A1A1A100AEAEAE00BBBBBB00C9C9C900D6D6D600E4E4E400
310
F1F1F100FFFFFF000000000000000000000000000000000000000000000000000000000000000000000000000000000000000000000000000000000000000000000000000000000000000000000000000000000000000000000000000000000000000000000000000000000000000000000000000000000000000000000000
310
00000000000000000000000000000000000000000000000000000000000000000000000000000000000000000000000000000000000000000000000000000000000000000000000000000000000000000000000000000000000000000000000000000000000000000000000000000000000000000000000000000000000000
310
00000000000000000000000000000000000000000000000000000000000000000000000000000000000000000000000000000000000000000000000000000000000000000000000000000000000000000000000000000000000000000000000000000000000000000000000000000000000000000000000000000000000000
310
00000000000000000000000000000000000000000000000000000000000000000000000000000000000000000000000000000000000000000000000000000000000000000000000000000000000000000000000000000000000000000000000000000000000000000000000000000000000000000000000000000000000000
310
00000000000000000000000000000000000000000000000000000000000000000000000000000000000000000000000000000000000000000000000000000000000000000000000000000000000000000000000000000000000000000000000000000000000000000000000000000000000000000000000000000000000000
310
00000000000000000000000000000000000000000000000000000000000000000000000000000000000000000000000000000000000000000000000000000000000000000000000000000000000000000000000000000000000000000000000000000000000000000000000000000000000000000000000000000000000000
310
00000000000000000000000000000000000000000000000000000000000000000000000000000000000000000000000000000000000000000000000000000000000000000000000000000000000000000000000000000000000000000000000000000000000000000000000000000000000000000000000000000000000000
310
00000000000000000000000000000000000000000000000000000000000000000000000000000000000000000000000000000000000000000000000000000000000000000000000000000000000000000000000000000000000000000000000000000000000000000000000000000000000000000000000000000000000000
310
00000000000000000000000000000000000000000000000000000000000000000000000000000000000000000000000000000000000000000000000000000000000000000000000000000000000000000000000000000000000000000000000000000000000000000000000000000000000000000000000000000000000000
310
00000000000000000000000000000000000000000000000000000000000000000000000000000000000000000000000000000000000000000000000000000000000000000000000000000000000000000000000000000000000000000000000000000000000000000000000000000000000000000000000000000000000000
310
000000000000000000000000000000000000000000000000000000000000000000000000000000000000000000000000000000000000000000000000000000000000000000000000000000000000000000000000F5F5F5F5F5F5F5F5F5F5F5F5F5F5F5F5F5F5F5F5F5F5F5F5F5F5F5F5F5F5F5F5F5F5F5F5F5F5F5F5F5F5F5
310
F5F5F5F5F5F5F5F5F5F5F5F5F5F5F5F5F5F5F5F5F5F5F5F5F5F5F5F5F5F5F5F5F5F5F5F5F5F5F5F5F5F5F5F5F5F5F5F5F5F5F5F5F5F5F5F5F5F5F5F5F5F5F5F5F5F5F5F5F5F5F5F5F5F5F5F5F5F5F5F5F5F5F5F5F5F5F5F5F5F5F5F5F5F5F5F5F5F50000000000000000000000000000000000000000000000000000000000
310
0000000000000000000000000000000000000000000000000000000000000000000000000000000000000000000000000000000000000000000000000000000000000000000000000000000000000000000000000000F500000000000000000000000000000000000000000000000000000000000000000000000000000000
310
000000000000000000000000000000000000000000000000000000000000000000000000000000000000000000000000000000000000000000000000000000000000000000000000000000000000000000000000000000000000000000000000000000F5000000000000000000000000000000000000000000000000000000
310
00000000000000000000000000000000000000000000000000000000000000000000000000000000000000000000000000000000000000000000000000000000000000000000000000000000000000000000000000000000F500000000000000002D2D2D2D2D2D2D2DDC2D2D2D2D2D2D2DBE2D2D2D2D2D2D2DDC2D2D2D2D2D
310
2D2DBE2D2D2D2D2D2D2DDC2D2D2D2D2D2D2DBE2D2D2D2D2D2D2DDCDC2D2D2D2D2D2D2D2D2D2D2D2D2D2D2D2D2D2D2D2D2D2D2D2D2D2D2D2D2D2D2D2D2D2D2D2D2D2D2D2D2D2D2D2D2D2D2D2D2D2D2D2D2DBE2D2D2D2D2D2D2D2D2D2D2D2D2D2D2D2D2D2D00F500000000000000000000000000000000000000000000000000
310
000000000000000000000000000000000000000000000000000000000000000000000000000000000000000000000000000000000000000000000000000000000000000000000000000000000000000000000000000000000000F500000000000000002D2828282828BE28DC28282828282828BE282828BE282828DCBE2828
310
28282828BE28282828282828DC28282828282828BE28282828282828DC28282828282828BE28282828282828280000000000BE00000000000000F5F5F500000000000000000000000000000028DCDCDCDCDCDCBE00000000000000000000000000000000002D00F50000000000000000000000000000000000000000000000
310
0000000000000000000000000000000000000000000000000000000000000000000000000000000000000000000000000000000000000000000000000000000000000000000000000000000000000000000000000000000000000000F500000000000000002D28DCDCDCDCBE0000DCDCDCDCDCDCDCDCDC0000BEDCDCDCDCDC
310
DCDCDCDC280000000000000000000000000000000000000000000000000000000000000000000000000000000000280000000000BE000000000000F5F5F5F5F5F5F5F5F5F5F5F5F500000000000028DCDCDCDCDCDCBE00000000000000000000000000000000002D00F5000000000000000000000000000000000000000000
310
00000000000000000000000000000000000000000000000000000000000000000000000000000000000000000000000000000000000000000000000000000000000000000000000000000000000000000000000000000000000000000000F500000000000000002D28DCDCDCDCBE0000DCDCDCDCDCDCDCDCDC0000BEDCDCDC
310
DCDCDCDCDCDC280000000000000000000000000000000000000000000000000000000000000000000000000000000000BEBEBEBEBEBEBE000000000000F5F5F5F5F5F5F5F5F5F5F5F5F5000000000000BEBEBEBEBEBEBEBEBEBEBEBEBEBEBEBEBEBEBEBEBEBEBEBEBEBE00F500000000000000000000000000000000000000
310
000000000000000000000000000000000000000000000000000000000000000000000000000000000000000000000000000000000000000000000000000000000000000000000000000000000000000000000000000000000000000000000000F500000000000000002DBEBEBEBEBEBEBEBEBEBEBEBEBEBEBEBEBEBEBEBEBE
310
BEBEBEBEBEBEBEBE28000000000000000000000000000000000000000000000000000000000000000000000000000000000028DCDCDCDC00BE000000000000F5F5F5F5F5F5F5F5F5F5F5F5F500000000000028DCDCDCDCDCDCBE00000000000000000000000000000000002D00F50000000000000000000000000000000000
310
0000000000000000000000000000000000000000000000000000000000000000000000000000000000000000000000000000000000000000000000000000000000000000000000000000000000000000000000000000000000000000000000000000F500000000000000002D2800000000BE00000000000000000000000000
310
BE00000000BE0000000028000000000000000000000000000000000000000000000000000000000000000000000000000000000028DCDCDCDC00BE0000000000000000000000000000000000000000000000000028DCDCDCDCDCDCBE00000000000000000000000000000000002D00F5000000000000000000000000000000
310
00000000000000000000000000000000000000000000000000000000000000000000000000000000000000000000000000000000000000000000000000000000000000000000000000000000000000000000000000000000000000000000000000000000F500000000000000002DBEBEBEBEBEBEBEBEBEBEBEBEBEBEBEBEBE
310
BEBEBEBEBEBEBEBEBEBEBEBE280000000000000000000000000000000000000000000000000000000000000000000000000000000000BEBEBEBEBEBEBEBEBEBEBEBEBEBEBEBEBEBEBEBEBEBEBEBEBEBEBEBEBEBEBEBEBEBEBEBEBEBEBEBEBEBEBEBEBEBEBEBEBEBEBEBEBEBEBEBEBEBE00F500000000000000000000000000
310
000000000000000000000000000000000000000000000000000000000000000000000000000000000000000000000000000000000000000000000000000000000000000000000000000000000000000000000000000000000000000000000000000000000000F50000000000000000DCDC00000000BE000000000000000000
310
00000000BE00000000BE00000000280000000000000000000000000000000000000000000000000000000000000000000000000000000000DC000000DCDCBE0000DC0000000000BE0000000000BE0000000000BE0000000028000000000000BE0000000000DCDC00DCDCDCDCDC000000002D00F50000000000000000000000
310
0000000000000000000000000000000000000000000000000000000000000000000000000000000000000000000000000000000000000000000000000000000000000000000000000000000000000000000000000000000000000000000000000000000000000000F50000000000000000DCDCBEBEBEBEBEBEBEBEBEBEBEBE
310
BEBEBEBEBEBEBEBEBEBEBEBEBEBEBEBE28000000000000000000000000000000000000000000000000000000000000000000000000000000000028DCDC00DCDCBE00DCDCDCDCDCDCDCBE0000000000BE0000000000BE0000000028000000000000BE0000000000DCDCDCDCDCDCDCDC000000002D00F5000000000000000000
310
00000000000000000000000000000000000000000000000000000000000000000000000000000000000000000000000000000000000000000000000000000000000000000000000000000000000000000000000000000000000000000000000000000000000000000000F500000000000000002D2800000000000000000000
310
00000000000000000000000000000000000000000000000000000000000000000000000000000000000000000000000000000000000000000000000028DCDCDCDC00BE00DCDCDCDCDCDC00BE0000000000BE0000000000BE000000002800DCDCDCDC00BEBEBEBEBEBEBEBEBEBEBEBEBEBEBEBEBEBEBE00F500000000000000
310
000000000000000000000000000000000000000000000000000000000000000000000000000000000000000000000000000000000000000000000000000000000000000000000000000000000000000000000000000000000000000000000000000000000000000000000000F500000000000000002D280000000000000000
310
000000000000000000000000000000000000000000000000000000000000000000000000000000000000000000000000000000000000000000000000000028DCDC0000DCDC0000DC0000000000BE0000000000BE0000000000BE000000002800DCDCDCDC00BE00000000000000000000000000000000002D00F50000000000
310
0000000000000000000000000000000000000000000000000000000000000000000000000000000000000000000000000000000000000000000000000000000000000000000000000000000000000000000000000000000000000000000000000000000000000000000000000000F500000000000000002D28000000000000
310
00000000000000000000000000000000000000000000000000000000000000000000000000000000000000000000000000000000000000000000000000000000BEDCDCDCDCDCBEDCDCDCDCDCDCDCDCBEDCDCDCDCDCBEDCDCDCDCDCDCDCDCDCDCBE000000000000BE000000000000DCDCDCDCDC0000000000002D00F5000000
310
00000000000000000000000000000000000000000000000000000000000000000000000000000000000000000000000000000000000000000000000000000000000000000000000000000000000000000000000000000000000000000000000000000000000000000000000000000000F500000000000000002D2800000000
310
00000000000000000000000000000000000000000000000000000000000000000000000000000000000000000000000000000000000000000000000000000000000028DCDCDCDCDCBEDCDCDCDCDCDCDCDCBEDCDCDCDCDCDCDCDCDCDCDCDCDCDCDCDC28000000000000BE00000000000000000000000000000000002D00F500
310
000000000000000000000000000000000000000000000000000000000000000000000000000000000000000000000000000000000000000000000000000000000000000000000000000000000000000000000000000000000000000000000000000000000000000000000000000000000000F500000000000000002D280000
310
00000000000000000000000000000000000000000000000000000000000000000000000000000000000000000000000000000000000000000000000000000000000000002828DCDCDC2828282828DCDCDCDCDCDCDCDCDCDCDC28282828DCDCDCDCDCDCDCBE28DCDCDCDC28BE2828282828DCDCDCDCDCDCDC28282828282800
310
F500000000000000000000000000000000000000000000000000000000000000000000000000000000000000000000000000000000000000000000000000000000000000000000000000000000000000000000000000000000000000000000000000000000000000000000000000000000000000F500000000000000002D28
310
000000DCDCDCDCDCDC00DC00DCDCDC000000000000000000000000000000000000000000000000000000000000000000000000000000000000000000000000000000000000002800DCDCDC00BE000000DCDCDCDCDCDCDCDCDCDCDC000000BEDCDCDCDCDCDCDCBE00DCDCDCDC00BE0000000000DCDCDCDCDCDCDC0000000000
310
2D00F500000000000000000000000000000000000000000000000000000000000000000000000000000000000000000000000000000000000000000000000000000000000000000000000000000000000000000000000000000000000000000000000000000000000000000000000000000000000000F50000000000000000
310
BEBE0000000000DCDCDCDC00DC0000DCDC00000000000000000000000000000000000000000000000000000000000000000000000000000000000000000000000000000000000000BEBEBEBEBEBEBEBEBEBEBEBEBEBEBEBEBEBEBEBEBEBEBEBEBEBEBEBEBEBEBEBEBEBEBEBEBEBEBEBEBEBEBEBEBEBEBEBEBEBEBEBEBEBEBE
310
BEBEBE00F500000000000000000000000000000000000000000000000000000000000000000000000000000000000000000000000000000000000000000000000000000000000000000000000000000000000000000000000000000000000000000000000000000000000000000000000000000000000000F5000000000000
310
00002D280000000000DCDCDCDC00DCDCDCDCDCDCDC0000000000000000000000000000000000000000000000000000000000000000000000000000000000000000000000000000000000280000DC0000BE000000000000DCDCDCDCDC000000000000BE00000000000000BE0000DCDCDC00BE00000000000000000000000000
310
000000002D00F500000000000000000000000000000000000000000000000000000000000000000000000000000000000000000000000000000000000000000000000000000000000000000000000000000000000000000000000000000000000000000000000000000000000000000000000000000000000000F500000000
310
000000002D28000000DCDCDCDCDCDC00DCDCDCDCDCDCDC0000000000000000000000000000000000000000000000000000000000000000000000000000000000000000000000000000000000BEBEBEDCBEBEBEBEBEBEBEBEBEBEDCDCDCDCBEBEBEBEBEBEBEBEBEBEBEBEBEBEBEBEBEDCDCDCBEBEBEBEBEBEBEBEBEBEBEBEBE
310
BEBEBEBEBEBEBE00F500000000000000000000000000000000000000000000000000000000000000000000000000000000000000000000000000000000000000000000000000000000000000000000000000000000000000000000000000000000000000000000000000000000000000000000000000000000000000F50000
310
0000000000002D280000000000000000000000000000000000000000000000000000000000000000000000000000000000000000000000000000000000000000000000000000000000000000000000000000000000000000000000000000000000000000000000000000000000000000000000000000000000000000000000
310
00000000000028002D00F500000000000000000000000000000000000000000000000000000000000000000000000000000000000000000000000000000000000000000000000000000000000000000000000000000000000000000000000000000000000000000000000000000000000000000000000000000000000000F5
310
00000000000000002D28000000000000000000000000000000000000000000000000000000000000000000000000000000000000000000000000000000000000000000000000000000000000000000000000000000000000000000000000000000000000000000000000000000000000000000000000000000000000000000
310
000000000000000028002D00F5000000000000000000000000000000000000000000000000000000000000000000000000000000000000000000000000000000000000000000000000000000000000000000000000000000000000000000000000000000000000000000000000000000000000000000000000000000000000
310
00F500000000000000002D2800000000000000000000000000000000000000000000000000000000000000000000BEBE000000000000000000000000000000000000000000000000000000000000000000BEBE0000000000000000000000000000000000000000000000000000000000000000000000000000000000000000
310
0000000000000000000028002D00F500000000000000000000000000000000000000000000000000000000000000000000000000000000000000000000000000000000000000000000000000000000000000000000000000000000000000000000000000000000000000000000000000000000000000000000000000000000
310
000000F500000000000000002D2800000000000000000000000000000000000000000000000000000000000000000000BEBEBEBEBEBEBEBEBEBEBEBEBEBEBEBEBEDCDCDCBEBEBEBEBEBEBEBEBEBEBEBEBEBEBEBEBE0000000000000000000000000000000000BEBEBEBEBEBEBEBEDCDCBEBEBEBEBEBEBEBE00000000000000
310
00000000000000000000000028002D00F50000000000000000000000000000000000000000000000000000000000000000000000000000000000000000000000000000000000000000000000000000000000000000000000000000000000000000000000000000000000000000000000000000000000000000000000000000
310
0000000000F500000000000000002D2800000000000000000000000000000000000000000000000000000000000000000000BE00000000000000000000000000000000DCDCDC00000000000000000000000000000000BE0000000000000000000000000000000000BE00000000000000DCDC00000000000000BE0000000000
310
000000000000000000000000000028002D00F5000000000000000000000000000000000000000000000000000000000000000000000000000000000000000000000000000000000000000000000000000000000000000000000000000000000000000000000000000000000000000000000000000000000000000000000000
310
00000000000000F50000000000000000DCDC00000000000000000000000000000000000000000000000000000000000000000000BE0000000000000000000000000000000000BE0000DCDCBE000000000000000000000000BE0000000000000000000000000000000000BE00000000000000000000000000000000BE000000
310
0000000000000000000000000000000028DCDC00F500000000000000000000000000000000000000000000000000000000000000000000000000000000000000000000000000000000000000000000000000000000000000000000000000000000000000000000000000000000000000000000000000000000000000000000
310
000000000000000000F50000000000000000DCDC00000000000000000000000000000000000000000000000000000000000000000000BE00BE000000000000000000000000000000BE00000000BE00000000000000000000BE00BE0000BE0000000000000000000000000000BE00000000000000000000000000000000BE00
310
00000000000000000000000000000000000028DCDC00F50000000000000000000000000000000000000000000000000000000000000000000000000000000000000000000000000000000000000000000000000000000000000000000000000000000000000000000000000000000000000000000000000000000000000000
310
0000000000000000000000F500000000000000002D2800000000000000000000000000000000000000000000000000000000BEBEBEBEBEBEBEDCBEDC2828282828282828280000000000BE000000BEBEBE2828282828282828DCBEDCBEBEBEBEBEBEBE0000000000000000000000BE28282828282828282828282828282828
310
BE0000000000000000000000000000000000000028002D00F5000000000000000000000000000000000000000000000000000000000000000000000000000000000000000000000000000000000000000000000000000000000000000000000000000000000000000000000000000000000000000000000000000000000000
310
00000000000000000000000000F500000000000000002D2800000000000000000000000000000000000000000000000000000000BEBE00BE000028DCBEDC2828282828282828282828282828BE282828BEBEBE2828282828282828DCBEDC2800DCDC00BEBE0000000000000000000000BE2800000000000000000000000000
310
0000280000000000000000000000000000000000000028002D00F500000000000000000000000000000000000000000000000000000000000000000000000000000000000000000000000000000000000000000000000000000000000000000000000000000000000000000000000000000000000000000000000000000000
310
000000000000000000000000000000F500000000000000002D2800000000000000000000000000000000000000000000000000000000BE0000BE000028DCBEDC2800282828282828282828282828BE282828BEBE282828282828282828DCBEDC2800DCDC0000BE0000000000000000000000BE280000000000000000000000
310
00000000280000000000000000000000000000000000000028002D00F50000000000000000000000000000000000000000000000000000000000000000000000000000000000000000000000000000000000000000000000000000000000000000000000000000000000000000000000000000000000000000000000000000
310
0000000000000000000000000000000000F500000000000000002D2800000000000000000000000000000000000000000000000000000000BE0000BE000000DCBEDC2800002800000000000000000000BE0000000000000000000000280028DCBEBEBEBEBEBE0000BE0000000000000000000000282828282828282828BE28
310
282828282828BE0000000000000000000000000000000000000028002D00F5000000000000000000000000000000000000000000000000000000000000000000000000000000000000000000000000000000000000000000000000000000000000000000000000000000000000000000000000000000000000000000000000
310
00000000000000000000000000000000000000F500000000000000002D2800000000000000000000000000000000000000000000000000000000BE0000BE00000000BE002800002800000000000000000000BE000000000000000000000028002800BE00000000BE0000BE0000000000000000000000282800000000000000
310
BE00000000000000BE0000000000000000000000000000000000000028002D00F500000000000000000000000000000000000000000000000000000000000000000000000000000000000000000000000000000000000000000000000000000000000000000000000000000000000000000000000000000000000000000000
310
000000000000000000000000000000000000000000F500000000000000002D2800000000000000000000000000000000000000000000000000000000BE0000BE0000000000002800002800000000000000000000BE0000000000000000000000280028000000000000000000BE000000000000000000000028280000000000
310
0028BE00000000000000BE0000000000000000000000000000000000000028002D00F50000000000000000000000000000000000000000000000000000000000000000000000000000000000000000000000000000000000000000000000000000000000000000000000000000000000000000000000000000000000000000
310
0000000000000000000000000000000000000000000000F50000000000000000BEBE00000000000000000000000000000000000000000000000000000000BE00DCDC000000000000280000280000BE00000000000000BE00000000000000BE000000280028000000000000000000BE00000000BEBEBEBEBEBEBEBEBEBEDC00
310
00000028BEBEBEDCDCDCBEBEBE00000000000000000000000000000000000000BEBEBE00F5000000000000000000000000000000000000000000000000000000000000000000000000000000000000000000000000000000000000000000000000000000000000000000000000000000000000000000000000000000000000
310
00000000000000000000000000000000000000000000000000F500000000000000002D2800000000000000000000000000000000000000000000000000000000BE00DCDC00000000000028000028BEBEBE00000000282828BE2828282800000000BEBE00280028000000000000000000BE00000000BE00BEBEBEBEBEBEDCDC
310
DC0000000028000000DCDC000000000000000000000000000000000000000000000028002D00F500000000000000000000000000000000000000000000000000000000000000000000000000000000000000000000000000000000000000000000000000000000000000000000000000000000000000000000000000000000
310
000000000000000000000000000000000000000000000000000000F500000000000000002D2800000000000000000000000000000000000000000000000000000000BE00DCDC000000000000280000BEBEBEBE00002828000000BE00000028280000BEBEBE00280028000000000000000000BE00000000BE00BEBE00000028
310
28DCDC00000028000000000000000000000000000000000000000000000000000000000028002D00F50000000000000000000000000000000000000000000000000000000000000000000000000000000000000000000000000000000000000000000000000000000000000000000000000000000000000000000000000000
310
0000000000000000000000000000000000000000000000000000000000F500000000000000002D28000000000000000000000000000000000000000000000000000000DCDC00DCDC000000000000280000BEBE00BE00280000000000BE00000000002800BE00BE00280028000000000000000000BE00000000BE0000BE0000
310
002828DCDC00000028000000000000000000000000000000000000000000000000000000000028002D00F5000000000000000000000000000000000000000000000000000000000000000000000000000000000000000000000000000000000000000000000000000000000000000000000000000000000000000000000000
310
00000000000000000000000000000000000000000000000000000000000000F500000000000000002D28000000000000000000000000000000000000000000000000000000DCDC00DCDC000000000000280000BE00BE0028000000000000BE0000000000002828000000280028000000000000000000BE00000000BE0000BE
310
0000002828DCDC00002800000000000000000000000000000000000000000000000000000000000028002D00F500000000000000000000000000000000000000000000000000000000000000000000000000000000000000000000000000000000000000000000000000000000000000000000000000000000000000000000
310
000000000000000000000000000000000000000000000000000000000000000000F500000000000000002D2800000000000000000000000000000000000000000000000000000000BE00DCDC0000000000002800BE280000BEBE000000000000BE0000000000000028000000280028000000000000000000BE00000000BE00
310
00BE0000002828DCDC00002800000000000000000000000000000000000000000000000000000000000028002D00F50000000000000000000000000000000000000000000000000000000000000000000000000000000000000000000000000000000000000000000000000000000000000000000000000000000000000000
310
0000000000000000000000000000000000000000000000000000000000000000000000F500000000000000002D2800000000000000000000000000000000000000000000000000000000BE0000BE0000000000002800BE2800002800BE0000000000BE0000000000000000280000280028000000000000000000BE00000000
310
BE0000BE0000002828DCDC00002800000000000000000000000000000000000000000000000000000000000028002D00F5000000000000000000000000000000000000000000000000000000000000000000000000000000000000000000000000000000000000000000000000000000000000000000000000000000000000
310
00000000000000000000000000000000000000000000000000000000000000000000000000F500000000000000002D2800000000000000000000000000000000000000000000000000000000BE0000BE0000000000002800BE280028000000BE00000000BE000000000000000028000028002800000000000000DCDCBE0000
310
0000BE0000BE0000002828DCDC00280000000000000000000000000000000000000000000000000000000000000028002D00F500000000000000000000000000000000000000000000000000000000000000000000000000000000000000000000000000000000000000000000000000000000000000000000000000000000
310
000000000000000000000000000000000000000000000000000000000000000000000000000000F50000000000000000DCDC00000000000000000000000000000000000000000000000000000000BE0000BE00000000000028000028002800000000BE000000BE000000000000000000280028002800000000000000DCDCBE
310
000000DCDC0000BE0000002828DCDC00280000000000000000000000000000000000000000000000000000000000000028DCDC00F50000000000000000000000000000000000000000000000000000000000000000000000000000000000000000000000000000000000000000000000000000000000000000000000000000
310
0000000000000000000000000000000000000000000000000000000000000000000000000000000000F500000000000000002D2800000000000000000000000000000000000000000000000000000000BE0000BE0000000000002800002828000000000000BEBE00BE000000000000000000280028002800000000000000DC
310
DCBE000000DCDC0000BE0000002828DCDC00280000000000000000000000000000000000000000000000000000000000000028002D00F5000000000000000000000000000000000000000000000000000000000000000000000000000000000000000000000000000000000000000000000000000000000000000000000000
310
00000000000000000000000000000000000000000000000000000000000000000000000000000000000000F500000000000000002D2800000000000000000000000000000000000000000000000000000000BE0000BE00000000000028000028280000000000000000BEBE0000000000000000002800280028000000000000
310
000000BE000000DCDCDCDCBE0000002828DCDC28000000000000000000000000000000000000000000000000000000000000000028002D00F500000000000000000000000000000000000000000000000000000000000000000000000000000000000000000000000000000000000000000000000000000000000000000000
310
000000000000000000000000000000000000000000000000000000000000000000000000000000000000000000F500000000000000002D2800000000000000000000000000000000000000000000000000000000BE0000BEBEBEBEBEBEBEBEBEBEBEBEBEBEBEBEBEBEBEBEBEBEBEBEBEBEBEBEBEBEBEBEBEBEBEBEBE000000
310
0000000000BE000000DCDCDCDCBE0000002828DCDC28000000000000000000000000000000000000000000000000000000000000000028002D00F50000000000000000000000000000000000000000000000000000000000000000000000000000000000000000000000000000000000000000000000000000000000000000
310
0000000000000000000000000000000000000000000000000000000000000000000000000000000000000000000000F500000000000000002D2800000000000000000000000000000000000000000000000000000000BEBE00000000000000002800002828000000000000000000BEBE000000000000000028002800280000
310
00000000000000BE0000DCDCDCDCDCBE0000002828DCDC00000000000000000000000000000000000000000000000000000000000000000028002D00F5000000000000000000000000000000000000000000000000000000000000000000000000000000000000000000000000000000000000000000000000000000000000
310
00000000000000000000000000000000000000000000000000000000000000000000000000000000000000000000000000F500000000000000002D2800000000000000000000000000000000000000000000000000000000BEBEBEBEBEBEBEBEBEBEBE28002800280000000000000000BE00BEBE00000000000028002800BE
310
000000000000000000BE0000DCDCDC0000BE0000002828DCDC00000000000000000000000000000000000000000000000000000000000000000028002D00F500000000000000000000000000000000000000000000000000000000000000000000000000000000000000000000000000000000000000000000000000000000
310
000000000000000000000000000000000000000000000000000000000000000000000000000000000000000000000000000000F500000000000000002D280000000000000000000000000000000000000000000000000000000000000000000000000000BE00282800280000000000000000BE000000BE0000000028000028
310
BEBE000000000000000000BE00000000BE0000BE0000002800DC2800000000000000000000000000000000000000000000000000000000000000000028002D00F50000000000000000000000000000000000000000000000000000000000000000000000000000000000000000000000000000000000000000000000000000
310
0000000000000000000000000000000000000000000000000000000000000000000000000000000000000000000000000000000000F500000000000000002D280000000000000000000000000000000000000000000000000000000000000000000000000000BE00002800280000000000000000BE00000000BE0000002800
310
00BE00BE000000000000000000BE00000000BE0000BE0000002800DC2800000000000000000000000000000000000000000000000000000000000000000028002D00F5000000000000000000000000000000000000000000000000000000000000000000000000000000000000000000000000000000000000000000000000
310
00000000000000000000000000000000000000000000000000000000000000000000000000000000000000000000000000000000000000F5F5F5F5000000282828280000000000000000000000000000000000000000000000000000000000000000000000000000BE00002800002800000000000000BE0000000000BE0028
310
280000BE00BE000000000000000000BE00000000BE0000BE0000002800DC2800000000000000000000000000000000000000000000000000000000000000000028282828F500000000000000000000000000000000000000000000000000000000000000000000000000000000000000000000000000000000000000000000
310
000000000000000000000000000000000000000000000000000000000000000000000000000000000000000000000000000000000000000000F500000000000000002D280000000000000000000000000000000000000000000000000000000000000000000000000000BE00002800000028000000000000BE000000000000
310
BEBE0000BEBE00BE000000000000000000BE00000000BE0000BE0000002800DC2800000000000000000000000000000000000000000000000000000000000000000028002D00F50000000000000000000000000000000000000000000000000000000000000000000000000000000000000000000000000000000000000000
310
0000000000000000000000000000000000000000000000000000000000000000000000000000000000000000000000000000000000000000000000F500000000000000002D280000000000000000000000000000000000000000000000000000000000000000000000000000BE000028BE000028280000000000BE00000000
310
00282800BE00BE2800BE000000000000000000BE00000000BE0000BE0000002800DC2800000000000000000000000000000000000000000000000000000000000000000028002D00F5000000000000000000000000000000000000000000000000000000000000000000000000000000000000000000000000000000000000
310
00000000000000000000000000000000000000000000000000000000000000000000000000000000000000000000000000000000000000000000000000F500000000000000002D280000000000000000000000000000000000000000000000000000000000000000000000000000BE000028BEBEBE00282800000000BE0000
310
0000282800BEBEBEBE2800BE000000000000000000BE00000000BE0000BE0000002800DC2800000000000000000000000000000000000000000000000000000000000000000028002D00F500000000000000000000000000000000000000000000000000000000000000000000000000000000000000000000000000000000
310
000000000000000000000000000000000000000000000000000000000000000000000000000000000000000000000000000000000000000000000000000000F500000000000000002D280000000000000000000000000000000000000000000000000000000000000000000000000000BE000028BEBEBE00000028282800BE
310
00282828000000BEBEBE00BE00BE000000000000000000BE00000000BE00BEBE0000002800DC2800000000000000000000000000000000000000000000000000000000000000000028002D00F50000000000000000000000000000000000000000000000000000000000000000000000000000000000000000000000000000
310
0000000000000000000000000000000000000000000000000000000000000000000000000000000000000000000000000000000000000000000000000000000000F500000000000000002D280000000000000000000000000000000000000000000000000000000000000000000000000000BE0000BEBEBEBE000000000000
310
28BE28000000000000BEBEBE28BEBEBE0000000000000000BEBE00000000BEBEBEBEBEBEBEBEBEBEDC00000000000000000000000000000000000000000000000000000000000000000028002D00F5000000000000000000000000000000000000000000000000000000000000000000000000000000000000000000000000
310
00000000000000000000000000000000000000000000000000000000000000000000000000000000000000000000000000000000000000000000000000000000000000F500000000000000002D280000000000000000000000000000000000000000000000000000000000000000000000000000BE0000BE2828BE28282828
310
282828BE282828282828282828BEBEBEBEBEDCBEBEBEBEBEBEBEBEBE0000000000000000000000BE28BEBE00000000000000000000000000000000000000000000000000000000000000000028002D00F500000000000000000000000000000000000000000000000000000000000000000000000000000000000000000000
310
000000000000000000000000000000000000000000000000000000000000000000000000000000000000000000000000000000000000000000000000000000000000000000F50000000000000000DCDC0000000000000000000000000000000000000000000000000000000000000000000000000000BE0000BE0000BE0000
310
0000000000BE0000000000000000000000BE00DCDCDC00000000000000000000000000000000000000BE00BEBE00000000000000000000000000000000000000000000000000000000000000000028DC2D00F50000000000000000000000000000000000000000000000000000000000000000000000000000000000000000
310
0000000000000000000000000000000000000000000000000000000000000000000000000000000000000000000000000000000000000000000000000000000000000000000000F50000000000000000DCDC0000000000000000000000000000000000000000000000000000000000000000000000000000BE0000BE000000
310
BEBEBEBEBEBEBEBE0000000000000000000000BE00BEDCDCDCBE0000000000000000000000000000000000BEBEBEBEBEBEBE00000000000000000000000000000000000000000000000000000000000028DCDC00F5000000000000000000000000000000000000000000000000000000000000000000000000000000000000
310
00000000000000000000000000000000000000000000000000000000000000000000000000000000000000000000000000000000000000000000000000000000000000000000000000F500000000000000002D280000000000000000000000000000000000000000000000000000000000000000000000000000BE0000BE00
310
000000DCDCDCDCDCDCBE0000000000000000000000BE00BE0000DCDCDC00000000000000000000000000000000BEBEBEBE00DC0000000000000000000000000000000000000000000000000000000000000028002D00F500000000000000000000000000000000000000000000000000000000000000000000000000000000
310
000000000000000000000000000000000000000000000000000000000000000000000000000000000000000000000000000000000000000000000000000000000000000000000000000000F500000000000000002D280000000000000000000000000000000000000000000000000000000000000000000000000000BE0000
310
BE00000000000000000000000000000000000000000000BE00BE000000DCDCDC000000000000000000000000000000BE0000BE00DC0000000000000000000000000000000000000000000000000000000000000028002D00F50000000000000000000000000000000000000000000000000000000000000000000000000000
310
0000000000000000000000000000000000000000000000000000000000000000000000000000000000000000000000000000000000000000000000000000000000000000000000000000000000F500000000000000002D280000000000000000000000000000000000000000000000000000000000000000000000000000BE
310
0000BEBEBEBEBEBEBEBEBEBEDCDCDCBEBEBEBEBEBEBEBEBEBEBE00BE00000000DC000000000000000000000000000000BEBEDCDCBEBE000000000000000000000000000000000000000000000000000000000000000028002D00F5000000000000000000000000000000000000000000000000000000000000000000000000
310
00000000000000000000000000000000000000000000000000000000000000000000000000000000000000000000000000000000000000000000000000000000000000000000000000000000000000F500000000000000002D2800000000000000000000000000000000000000000000000000000000000000000000000000
310
00BE000000000000000000000000DCDCDC000000000000000000000000BE00000000000000000000000000000000000000000000DCDC0000000000000000000000000000000000000000000000000000000000000000000028002D00F500000000000000000000000000000000000000000000000000000000000000000000
310
000000000000000000000000000000000000000000000000000000000000000000000000000000000000000000000000000000000000000000000000000000000000000000000000000000000000000000F500000000000000002D280000000000000000000000000000000000000000000000000000000000000000000000
310
000000BEBEBEBEBEBEBEBEBEBEBEBEBEBEBEBEBEBEBEBEBEBEBEBEBEBEBEBEBE0000000000000000000000000000000000000000000000000000000000000000000000000000000000000000000000000000000000000000000028002D00F50000000000000000000000000000000000000000000000000000000000000000
310
0000000000000000000000000000000000000000000000000000000000000000000000000000000000000000000000000000000000000000000000000000000000000000000000000000000000000000000000F500000000000000002D28000000000000000000000000000000000000000000000000000000000000000000
310
0000000000BE000000000000000000000000DCDCDC000000000000000000000000BE0000000000000000000000000000000000000000000000000000000000000000000000000000000000000000000000000000000000000000000028002D00F5000000000000000000000000000000000000000000000000000000000000
310
00000000000000000000000000000000000000000000000000000000000000000000000000000000000000000000000000000000000000000000000000000000000000000000000000000000000000000000000000F500000000000000002D2800000000000000000000000000000000000000000000000000000000000000
310
0000000000000000000000000000000000000000DCDCDC000000000000000000000000000000000000000000000000000000000000000000000000000000000000000000000000000000000000000000000000000000000000000000000028002D00F500000000000000000000000000000000000000000000000000000000
310
000000000000000000000000000000000000000000000000000000000000000000000000000000000000000000000000000000000000000000000000000000000000000000000000000000000000000000000000000000F50000000000000000BEBE0000000000000000000000000000000000000000000000000000000000
310
000000000000000000000000000000000000000000000000000000000000000000000000000000000000000000DC0000000000000000000000000000000000000000000000000000000000000000000000000000000000000000000000000000BEBEBE00F50000000000000000000000000000000000000000000000000000
310
0000000000000000000000000000000000000000000000000000000000000000000000000000000000000000000000000000000000000000000000000000000000000000000000000000000000000000000000000000000000F500000000000000002D28000000000000000000000000000000000000000000000000000000
310
0000000000000000BEBEBE0000000000000000000000000000BE0000000000000000000000000000000000000000DCDCDC0000000000000000000000000000000000000000000000000000000000000000000000000000000000000000000000000028002D00F5000000000000000000000000000000000000000000000000
310
00000000000000000000000000000000000000000000000000000000000000000000000000000000000000000000000000000000000000000000000000000000000000000000000000000000000000000000000000000000000000F500000000000000002D2800000000000000000000000000000000000000000000000000
310
0000000000DCDCDCDCDCBEBEBE0000000000000000000000000000BE00000000000000000000000000000000000000DCDCDC000000000000000000000000000000000000000000000000000000000000000000000000000000000000000000000000000028002D00F500000000000000000000000000000000000000000000
310
000000000000000000000000000000000000000000000000000000000000000000000000000000000000000000000000000000000000000000000000000000000000000000000000000000000000000000000000000000000000000000F500000000000000002D280000000000000000000000000000000000000000000000
310
0000000000000000DCDCDCDCBE00BE0000000000000000000000000000BE00000000000000000000000000000000000000BE0000000000000000000000000000000000000000000000000000000000000000000000000000000000000000000000000000000028002D00F50000000000000000000000000000000000000000
310
0000000000000000000000000000000000000000000000000000000000000000000000000000000000000000000000000000000000000000000000000000000000000000000000000000000000000000000000000000000000000000000000F500000000000000002D28000000000000000000000000000000000000000000
310
0000000000000000000000000000BE00BE2828282828282828282828282828BE2828282828282828282828BEBEBEBEBEBEBEBEBEBEBEBEBE00000000000000000000000000000000000000000000000000000000000000000000000000000000000000000000000028002D00F5000000000000000000000000000000000000
310
00000000000000000000000000000000000000000000000000000000000000000000000000000000000000000000000000000000000000000000000000000000000000000000000000000000000000000000000000000000000000000000000000F500000000000000002D2800000000000000000000000000000000000000
310
00000000000000000000000000000000BE28BE2800002800000000000000000000BE00000000000000000000002800280028BEBE00000000DCBE00000000000000000000000000000000000000000000000000000000000000000000000000000000000000000000000028002D00F500000000000000000000000000000000
310
000000000000000000000000000000000000000000000000000000000000000000000000000000000000000000000000000000000000000000000000000000000000000000000000000000000000000000000000000000000000000000000000000000F500000000000000002D280000000000000000000000000000000000
310
0000000000000000000000000000BE000028BEBEBE2828282828282828282828282828BE282828282828282828282828282800BE2828000000DCDCBE00000000000000000000000000000000000000000000000000000000000000000000000000000000000000000000000028002D00F50000000000000000000000000000
310
0000000000000000000000000000000000000000000000000000000000000000000000000000000000000000000000000000000000000000000000000000000000000000000000000000000000000000000000000000000000000000000000000000000000F50000000000000000DCDC000000000000000000000000000000
310
00000000000000000000000000000000BEBEBEBEBEBEBE2800002828000000000000000000BE000000000000000000280028002828BE2828000000DCBEBE00000000000000000000000000000000000000000000000000000000000000000000000000000000000000000000000028DCDC00F5000000000000000000000000
310
00000000000000000000000000000000000000000000000000000000000000000000000000000000000000000000000000000000000000000000000000000000000000000000000000000000000000000000000000000000000000000000000000000000000000F50000000000000000DCDC00000000000000000000000000
310
000000000000000000000000000000000000BE0000BEBEBEBEBE00002828000000000000000000BE00000000000000000028002800BEBEBEBEBEBEBEBEBEBEBE00000000000000000000000000000000000000000000000000000000000000000000000000000000000000000000000028DCDC00F500000000000000000000
310
000000000000000000000000000000000000000000000000000000000000000000000000000000000000000000000000000000000000000000000000000000000000000000000000000000000000000000000000000000000000000000000000000000000000000000F500000000000000002D280000000000000000000000
310
0000000000000000000000000000000000000000BEBEBEBEBEBE2828000028280000000000BEBEBE28BE282828282800000000280028002828BE282800000000BEBE00000000000000000000000000000000000000000000000000000000000000000000000000000000000000000000000028002D00F50000000000000000
310
0000000000000000000000000000000000000000000000000000000000000000000000000000000000000000000000000000000000000000000000000000000000000000000000000000000000000000000000000000000000000000000000000000000000000000000000F500000000000000002D28000000000000000000
310
00000000000000000000000000000000000000000000BE00002800BE002800002828000000282800BEBE00BE000000002828000000280028002800BE00280000000000BE00000000000000000000000000000000000000000000000000000000000000000000000000000000000000000000000028002D00F5000000000000
310
00000000000000000000000000000000000000000000000000000000000000000000000000000000000000000000000000000000000000000000000000000000000000000000000000000000000000000000000000000000000000000000000000000000000000000000000000F500000000000000002D2800000000000000
310
0000000000000000000000000000000000000000000000DCDC00002800BE00280000282800000028000000BE00BE000000000028000000280028002800BE00280000000000BE00000000000000000000000000000000000000000000000000000000000000000000000000000000000000000000000028002D00F500000000
310
000000000000000000000000000000000000000000000000000000000000000000000000000000000000000000000000000000000000000000000000000000000000000000000000000000000000000000000000000000000000000000000000000000000000000000000000000000F500000000000000002D280000000000
310
00000000000000000000000000000000000000000000000000DCBE00002800BE00280000282800000028000000BE00BE000000000028000000280028002800BE002800000000DCBE00000000000000000000000000000000000000000000000000000000000000000000000000000000000000000000000028002D00F50000
310
0000000000000000000000000000000000000000000000000000000000000000000000000000000000000000000000000000000000000000000000000000000000000000000000000000000000000000000000000000000000000000000000000000000000000000000000000000000000F500000000000000002D28000000
310
000000000000000000000000000000000000000000000000000000DCDC00002800BE00282828282800000028000000BE00BE000000000028000000280028282800BE0028000000DCDCBE00000000000000000000000000000000000000000000000000000000000000000000000000000000000000000000000028002D00F5
310
00000000000000000000000000000000000000000000000000000000000000000000000000000000000000000000000000000000000000000000000000000000000000000000000000000000000000000000000000000000000000000000000000000000000000000000000000000000000000F500000000000000002D2800
310
0000000000000000000000000000000000000000000000000000000000DCDC00002800BE0000000028280000002800DCDCBE00BE000000000028000000280028000000BE0028000000DCDCBE00000000000000000000000000000000000000000000000000000000000000000000000000000000000000000000000028002D
310
00F500000000000000000000000000000000000000000000000000000000000000000000000000000000000000000000000000000000000000000000000000000000000000000000000000000000000000000000000000000000000000000000000000000000000000000000000000000000000000F500000000000000002D
310
28000000000000000000000000000000000000000000000000000000000000DCDC00002800BE0000000028280000002800DCDCBE00BE000000000028000000280028000000BE00280000000000BE00000000000000000000000000000000000000000000000000000000000000000000000000000000000000000000000028
310
002D00F500000000000000000000000000000000000000000000000000000000000000000000000000000000000000000000000000000000000000000000000000000000000000000000000000000000000000000000000000000000000000000000000000000000000000000000000000000000000000F500000000000000
310
00BEBE000000000000000000000000000000000000000000000000000000000000000000002800BE00000000282800000028000000BE00BE000000000028000000280028000000BE00280000000000BE0000000000000000000000000000000000000000000000000000000000000000000000000000000000000000000000
310
00BEBEBE00F500000000000000000000000000000000000000000000000000000000000000000000000000000000000000000000000000000000000000000000000000000000000000000000000000000000000000000000000000000000000000000000000000000000000000000000000000000000000000F50000000000
310
0000002D28000000000000000000000000000000000000000000000000000000000000000000002828BE28000000282800000028000000BE00BE000000000028000000280028000028BE282800000000BEBE000000000000000000000000000000000000000000000000000000000000000000000000000000000000000000
310
00000028002D00F500000000000000000000000000000000000000000000000000000000000000000000000000000000000000000000000000000000000000000000000000000000000000000000000000000000000000000000000000000000000000000000000000000000000000000000000000000000000000F5000000
310
00000000002D2800000000000000000000000000000000000000000000000000000000000000000000BEBEBEBEBE00002828000000BE000000BE00BE0000000000BE00000028002800BEBEBEBEBEBEBEBEBEBEBE00000000000000000000000000000000000000000000000000000000000000000000000000000000000000
310
000000000028002D00F500000000000000000000000000000000000000000000000000000000000000000000000000000000000000000000000000000000000000000000000000000000000000000000000000000000000000000000000000000000000000000000000000000000000000000000000000000000000000F500
310
000000000000002D28000000000000000000000000000000000000000000000000000000000000000000002828BE280000002828000028BE0000BEBE00BE0000000000BE280000280028000028BE28BE0000000000000000000000000000000000000000000000000000000000000000000000000000000000000000000000
310
0000000000000028002D00F500000000000000000000000000000000000000000000000000000000000000000000000000000000000000000000000000000000000000000000000000000000000000000000000000000000000000000000000000000000000000000000000000000000000000000000000000000000000000
310
F500000000000000002D28000000000000000000000000000000000000000000000000000000000000000000000028BE282828282828BEBEBEBEBEBEBEBE00BE0000000000BE002828282828282828BE28BE000000000000000000000000000000000000000000000000000000000000000000000000000000000000000000
310
00000000000000000028002D00F50000000000000000000000000000000000000000000000000000000000000000000000000000000000000000000000000000000000000000000000000000000000000000000000000000000000000000000000000000000000000000000000000000000000000000000000000000000000
310
0000F500000000000000002D28000000000000000000000000000000000000000000000000000000000000000000000000BE000000000000000000BE0000000000BE0000000000BE000000000000000000BE00DCDCDC0000000000000000000000000000000000000000000000000000000000000000000000000000000000
310
000000000000000000000028002D00F5000000000000000000000000000000000000000000000000000000000000000000000000000000000000000000000000000000000000000000000000000000000000000000000000000000000000000000000000000000000000000000000000000000000000000000000000000000
310
00000000F500000000000000002D28000000000000000000000000000000000000000000000000000000000000000000000000BE000000000000000000BE0000000000000000000000BE000000000000000000BE0000DCDCDC0000000000000000000000000000000000000000000000000000000000000000000000000000
310
0000000000000000000000000028002D00F500000000000000000000000000000000000000000000000000000000000000000000000000000000000000000000000000000000000000000000000000000000000000000000000000000000000000000000000000000000000000000000000000000000000000000000000000
310
000000000000F50000000000000000DCDC000000000000000000000000000000000000000000000000000000000000000000000000BE000000000000000000BE0000000000000000000000BE000000000000000000BE000000DC00000000000000000000000000000000000000000000000000000000000000000000000000
310
00000000000000000000000000000028DCDC00F50000000000000000000000000000000000000000000000000000000000000000000000000000000000000000000000000000000000000000000000000000000000000000000000000000000000000000000000000000000000000000000000000000000000000000000000
310
0000000000000000F500000000000000002DDC000000000000000000000000000000000000000000000000000000000000000000000000BE000000000000000000BEBEBEBEBEDCDCDCBEBEBEBEBE000000000000000000BE000000000000000000000000000000000000000000000000000000000000000000000000000000
310
000000000000000000000000000000000028DC2D00F5000000000000000000000000000000000000000000000000000000000000000000000000000000000000000000000000000000000000000000000000000000000000000000000000000000000000000000000000000000000000000000000000000000000000000000
310
00000000000000000000F500000000000000002D28000000000000000000000000000000000000000000000000000000000000000000000000BE0000000000000000000000000000DCDCDC0000000000000000000000000000BE00000000000000000000000000000000000000000000000000000000000000000000000000
310
0000000000000000000000000000000000000028002D00F500000000000000000000000000000000000000000000000000000000000000000000000000000000000000000000000000000000000000000000000000000000000000000000000000000000000000000000000000000000000000000000000000000000000000
310
000000000000000000000000F500000000000000002D28000000000000000000000000000000000000000000000000000000000000000000000000BEBEBEBEBEBEBEBEBEBEBEBEBEBEBEBEBEBEBEBEBEBEBEBEBEBEBEBEBEBEBEBEBE0000000000000000000000000000000000000000000000000000000000000000000000
310
00000000000000000000000000000000000000000028002D00F50000000000000000000000000000000000000000000000000000000000000000000000000000000000000000000000000000000000000000000000000000000000000000000000000000000000000000000000000000000000000000000000000000000000
310
0000000000000000000000000000F500000000000000002D28000000000000000000000000000000000000000000000000000000000000000000000000BEBE00000000000000000000000000DCDCDC00000000000000000000000000BEBE000000000000000000000000000000000000000000000000000000000000000000
310
000000000000000000000000000000000000000000000028002D00F5000000000000000000000000000000000000000000000000000000000000000000000000000000000000000000000000000000000000000000000000000000000000000000000000000000000000000000000000000000000000000000000000000000
310
00000000000000000000000000000000F500000000000000002D28000000000000000000000000000000000000000000000000000000000000000000000000000000000000000000000000000000DCDCDC00000000000000000000000000000000000000000000000000000000000000000000000000000000000000000000
310
0000000000000000000000000000000000000000000000000028002D00F500000000000000000000000000000000000000000000000000000000000000000000000000000000000000000000000000000000000000000000000000000000000000000000000000000000000000000000000000000000000000000000000000
310
000000000000000000000000000000000000F500000000000000002D280000000000000000000000000000000000000000000000000000000000000000000000000000000000000000000000000000000000000000000000000000000000000000000000000000000000000000000000000000000000000000000000000000
310
00000000000000000000000000000000000000000000000000000028002D00F50000000000000000000000000000000000000000000000000000000000000000000000000000000000000000000000000000000000000000000000000000000000000000000000000000000000000000000000000000000000000000000000
310
0000000000000000000000000000000000000000F500000000000000002D28282828282828DC28282828282828BE28282828282828DC28282828282828BE28282828282828DC28282828282828BE28282828282828DCDC2828282828282828282828282828DCDC28282828282828BE282828282828DCDC28282828282828BE
310
28282828282828DC28282828282828BE28282828282828DC282828282828002D00F5000000000000000000000000000000000000000000000000000000000000000000000000000000000000000000000000000000000000000000000000000000000000000000000000000000000000000000000000000000000000000000
310
00000000000000000000000000000000000000000000F500000000000000002D2D2D2D2D2D2D2DDC2D2D2D2D2D2D2DBE2D2D2D2D2D2D2DDC2D2D2D2D2D2D2DBE2D2D2D2D2D2D2DDC2D2D2D2D2D2D2DBE2D2D2D2D2D2D2DDC2D2D2D2D2D2D2D282D2D2D2D2D2D2DDCDC2D2D2D2D2D2D2DBE2D2D2D2D2D2DDCDC2D2D2D2D2D2D
310
2DBE2D2D2D2D2D2D2DDC2D2D2D2D2D2D2DBE2D2D2D2D2D2D2DDC2D2D2D2D2D2D2D2D00F500000000000000000000000000000000000000000000000000000000000000000000000000000000000000000000000000000000000000000000000000000000000000000000000000000000000000000000000000000000000000
310
000000000000000000000000000000000000000000000000F5000000000000000000000000000000000000000000000000000000000000000000000000000000000000000000000000000000000000000000000000000000000000000000000000280000000000000000000000000000000000000000000000000000000000
310
00000000000000000000000000000000000000000000000000000000000000000000000000F50000000000000000000000000000000000000000000000000000000000000000000000000000000000000000000000000000000000000000000000000000000000000000000000000000000000000000000000000000000000
310
0000000000000000000000000000000000000000000000000000F5F5F5F5F5F5F5F5F5F5F5F5F5F5F5F5F5F5F5F5F5F5F5F5F5F5F5F5F5F5F5F5F5F5F5F5F5F5F5F5F5F5F5F5F5F5F5F5F5F5F5F5F5F5F5F5F5F5F5F5F5F5F5F5F5F5F5F5F5F5F5F5F5F5F5F5F5F5F5F5F5F5F5F5F5F5F5F5F5F5F5F5F5F5F5F5F5F5F5F5F5
310
F5F5F5F5F5F5F5F5F5F5F5F5F5F5F5F5F5F5F5F5F5F5F5F5F5F5F5F5F5F5F5F5F5F5F5F5F5F5F5F5000000000000000000000000000000000000000000000000000000000000000000000000000000000000000000000000000000000000000000000000000000000000000000000000000000000000000000000000000000
310
00000000000000000000000000000000000000000000000000000000000000000000000000000000000000000000000000000000000000000000000000000000000000000000000000000000000000000000000000000000000000000000000000000000000000000000000000000000000000000000000000000000000000
310
00000000000000000000000000000000000000000000000000000000000000000000000000000000000000000000000000000000000000000000000000000000000000000000000000000000000000000000000000000000000000000000000000000000000000000000000000000000000000000000000000000000000000
310
00000000000000000000000000000000000000000000000000000000000000000000000000000000000000000000000000000000000000000000000000000000000000000000000000000000000000000000000000000000000000000000000000000000000000000000000000000000000000000000000000000000000000
310
00000000000000000000000000000000000000000000000000000000000000000000000000000000000000000000000000000000000000000000000000000000000000000000000000000000000000000000000000000000000000000000000000000000000000000000000000000000000000000000000000000000000000
310
00000000000000000000000000000000000000000000000000000000000000000000000000000000000000000000000000000000000000000000000000000000000000000000000000000000000000000000000000000000000000000000000000000000000000000000000000000000000000000000000000000000000000
310
00000000000000000000000000000000000000000000000000000000000000000000000000000000000000000000000000000000000000000000000000000000000000000000000000000000000000000000000000000000000000000000000000000000000000000000000000000000000000000000000000000000000000
310
00000000000000000000000000000000000000000000000000000000000000000000000000000000000000000000000000000000000000000000000000000000000000000000000000000000000000000000000000000000000000000000000000000000000000000000000000000000000000000000000000000000000000
310
00000000000000000000000000000000000000000000000000000000000000000000000000000000000000000000000000000000000000000000000000000000000000000000000000000000000000000000000000000000000000000000000000000000000000000000000000000000000000000000000000000000000000
310
00000000000000000000000000000000000000000000000000000000000000000000000000000000000000000000000000000000000000000000000000000000000000000000000000000000000000000000000000000000000000000000000000000000000000000000000000000000000000000000000000000000000000
310
00000000000000000000000000000000000000000000000000000000000000000000000000000000000000000000000000000000000000000000000000000000000000000000000000000000000000000000000000000000000000000000000000000000000000000000000000000000000000000000000000000000000000
310
00000000000000000000000000000000000000000000000000000000000000000000000000000000000000000000000000000000000000000000000000000000000000000000000000000000000000000000000000000000000000000000000000000000000000000000000000000000000000000000000000000000000000
310
00000000000000000000000000000000000000000000000000000000000000000000000000000000000000000000000000000000000000000000000000000000000000000000000000000000000000000000000000000000000000000000000000000000000000000000000000000000000000000000000000000000000000
310
00000000000000000000000000000000000000000000000000000000000000000000000000000000000000000000000000000000000000000000000000000000000000000000000000000000000000000000000000000000000000000000000000000000000000000000000000000000000000000000000000000000000000
310
00000000000000000000000000000000000000000000000000000000000000000000000000000000000000000000000000000000000000000000000000000000000000000000000000000000000000000000000000000000000000000000000000000000000000000000000000000000000000000000000000000000000000
310
00000000000000000000000000000000000000000000000000000000000000000000000000000000000000000000000000000000000000000000000000000000000000000000000000000000000000000000000000000000000000000000000000000000000000000000000000000000000000000000000000000000000000
310
00000000000000000000000000000000000000000000000000000000000000000000000000000000000000000000000000000000000000000000000000000000000000000000000000000000000000000000000000000000000000000000000000000000000000000000000000000000000000000000000000000000000000
310
00000000000000000000000000000000000000000000000000000000000000000000000000000000000000000000000000000000000000000000000000000000000000000000000000000000000000000000000000000000000000000000000000000000000000000000000000000000000000000000000000000000000000
310
00000000000000000000000000000000000000000000000000000000000000000000000000000000000000000000000000000000000000000000000000000000000000000000000000000000000000000000000000000000000000000000000000000000000000000000000000000000000000000000000000000000000000
310
00000000000000000000000000000000000000000000000000000000000000000000000000000000000000000000000000000000000000000000000000000000000000000000000000000000000000000000000000000000000000000000000000000000000000000000000000000000000000000000000000000000000000
310
00000000000000000000000000000000000000000000000000000000000000000000000000000000000000000000000000000000000000000000000000000000000000000000000000000000000000000000000000000000000000000000000000000000000000000000000000000000000000000000000000000000000000
310
00000000000000000000000000000000000000000000000000000000000000000000000000000000000000000000000000000000000000000000000000000000000000000000000000000000000000000000000000000000000000000000000000000000000000000000000000000000000000000000000000000000000000
310
00000000000000000000000000000000000000000000000000000000000000000000000000000000000000000000000000000000000000000000000000000000000000000000000000000000000000000000000000000000000000000000000000000000000000000000000000000000000000000000000000000000000000
310
00000000000000000000000000000000000000000000000000000000000000000000000000000000000000000000000000000000000000000000000000000000000000000000000000000000000000000000000000000000000000000000000000000000000000000000000000000000000000000000000000000000000000
310
00000000000000000000000000000000000000000000000000000000000000000000000000000000000000000000000000000000000000000000000000000000000000000000000000000000000000000000000000000000000000000000000000000000000000000000000000000000000000000000000000000000000000
310
00000000000000000000000000000000000000000000000000000000000000000000000000000000000000000000000000000000000000000000000000000000000000000000000000000000000000000000000000000000000000000000000000000000000000000000000000000000000000000000000000000000000000
310
00000000000000000000000000000000000000000000000000000000000000000000000000000000000000000000000000000000000000000000000000000000000000000000000000000000000000000000000000000000000000000000000000000000000000000000000000000000000000000000000000000000000000
310
00000000000000000000000000000000000000000000000000000000000000000000000000000000000000000000000000000000000000000000000000000000000000000000000000000000000000000000000000000000000000000000000000000000000000000000000000000000000000000000000000000000000000
310
00000000000000000000000000000000000000000000000000000000000000000000000000000000000000000000000000000000000000000000000000000000000000000000000000000000000000000000000000000000000000000000000000000000000000000000000000000000000000000000000000000000000000
310
000000000000000000000000000000000000000000000000000000000000
  0
XRECORD
  5
EB84
102
{ACAD_REACTORS
330
59A8
102
}
330
59A8
100
AcDbXrecord
280
     1
102
MATERIAL
148
0.0
149
0.0
149
0.0
 93
        0
 94
       63
282
     0
 72
     0
 77
     0
171
     0
175
     0
179
     0
273
     0
  0
XRECORD
  5
59AA
102
{ACAD_REACTORS
330
59A8
102
}
330
59A8
100
AcDbXrecord
280
     1
270
     1
271
     1
  0
XRECORD
  5
59A9
102
{ACAD_REACTORS
330
59A8
102
}
330
59A8
100
AcDbXrecord
280
     1
270
     1
271
     1
  0
XRECORD
  5
59AD
102
{ACAD_REACTORS
330
59A8
102
}
330
59A8
100
AcDbXrecord
280
     1
270
     1
271
     1
  0
XRECORD
  5
59AC
102
{ACAD_REACTORS
330
59A8
102
}
330
59A8
100
AcDbXrecord
280
     1
270
     1
271
     1
  0
XRECORD
  5
59AE
102
{ACAD_REACTORS
330
59A8
102
}
330
59A8
100
AcDbXrecord
280
     1
270
     1
271
     1
  0
XRECORD
  5
59AB
102
{ACAD_REACTORS
330
59A8
102
}
330
59A8
100
AcDbXrecord
280
     1
270
     1
271
     1
  0
XRECORD
  5
EB83
102
{ACAD_REACTORS
330
59A0
102
}
330
59A0
100
AcDbXrecord
280
     1
102
MATERIAL
148
0.0
149
0.0
149
0.0
 93
        0
 94
       63
282
     0
 72
     0
 77
     0
171
     0
175
     0
179
     0
273
     0
  0
XRECORD
  5
59A2
102
{ACAD_REACTORS
330
59A0
102
}
330
59A0
100
AcDbXrecord
280
     1
270
     1
271
     1
  0
XRECORD
  5
59A1
102
{ACAD_REACTORS
330
59A0
102
}
330
59A0
100
AcDbXrecord
280
     1
270
     1
271
     1
  0
XRECORD
  5
59A5
102
{ACAD_REACTORS
330
59A0
102
}
330
59A0
100
AcDbXrecord
280
     1
270
     1
271
     1
  0
XRECORD
  5
59A4
102
{ACAD_REACTORS
330
59A0
102
}
330
59A0
100
AcDbXrecord
280
     1
270
     1
271
     1
  0
XRECORD
  5
59A6
102
{ACAD_REACTORS
330
59A0
102
}
330
59A0
100
AcDbXrecord
280
     1
270
     1
271
     1
  0
XRECORD
  5
59A3
102
{ACAD_REACTORS
330
59A0
102
}
330
59A0
100
AcDbXrecord
280
     1
270
     1
271
     1
  0
XRECORD
  5
EB82
102
{ACAD_REACTORS
330
EB81
102
}
330
EB81
100
AcDbXrecord
280
     1
102
MATERIAL
148
0.0
149
0.0
149
0.0
 93
        0
 94
       63
282
     0
 72
     1
 77
     1
171
     1
175
     1
179
     1
273
     0
  0
XRECORD
  5
C3B2
102
{ACAD_REACTORS
330
C3B1
102
}
330
C3B1
100
AcDbXrecord
280
     1
102
ACAD_ROUNDTRIP_2012_MLEADER_STYLE
298
     1
  0
CELLSTYLEMAP
  5
EB78
102
{ACAD_REACTORS
330
5A78
102
}
330
5A78
100
AcDbCellStyleMap
 90
        3
300
CELLSTYLE
  1
TABLEFORMAT_BEGIN
 90
        5
170
     1
 91
        0
 92
    32768
 62
   257
 93
        1
300
CONTENTFORMAT
  1
CONTENTFORMAT_BEGIN
 90
        0
 91
        0
 92
        4
 93
        0
300

 40
0.0
140
1.0
 94
        5
 62
     0
340
11
144
6.0
309
CONTENTFORMAT_END
171
     1
301
MARGIN
  1
CELLMARGIN_BEGIN
 40
1.5
 40
1.5
 40
1.5
 40
1.5
 40
0.18
 40
0.18
309
CELLMARGIN_END
 94
        6
 95
        1
302
GRIDFORMAT
  1
GRIDFORMAT_BEGIN
 90
        0
 91
        1
 62
     0
 92
       -2
340
0
 93
        0
 40
0.045
309
GRIDFORMAT_END
 95
        2
302
GRIDFORMAT
  1
GRIDFORMAT_BEGIN
 90
        0
 91
        1
 62
     0
 92
       -2
340
0
 93
        0
 40
0.045
309
GRIDFORMAT_END
 95
        4
302
GRIDFORMAT
  1
GRIDFORMAT_BEGIN
 90
        0
 91
        1
 62
     0
 92
       -2
340
0
 93
        0
 40
0.045
309
GRIDFORMAT_END
 95
        8
302
GRIDFORMAT
  1
GRIDFORMAT_BEGIN
 90
        0
 91
        1
 62
     0
 92
       -2
340
0
 93
        0
 40
0.045
309
GRIDFORMAT_END
 95
       16
302
GRIDFORMAT
  1
GRIDFORMAT_BEGIN
 90
        0
 91
        1
 62
     0
 92
       -2
340
0
 93
        0
 40
0.045
309
GRIDFORMAT_END
 95
       32
302
GRIDFORMAT
  1
GRIDFORMAT_BEGIN
 90
        0
 91
        1
 62
     0
 92
       -2
340
0
 93
        0
 40
0.045
309
GRIDFORMAT_END
309
TABLEFORMAT_END
  1
CELLSTYLE_BEGIN
 90
        1
 91
        1
300
_TITLE
309
CELLSTYLE_END
300
CELLSTYLE
  1
TABLEFORMAT_BEGIN
 90
        5
170
     1
 91
        0
 92
        0
 62
   257
 93
        1
300
CONTENTFORMAT
  1
CONTENTFORMAT_BEGIN
 90
        0
 91
        0
 92
        4
 93
        0
300

 40
0.0
140
1.0
 94
        5
 62
     0
340
11
144
4.5
309
CONTENTFORMAT_END
171
     1
301
MARGIN
  1
CELLMARGIN_BEGIN
 40
1.5
 40
1.5
 40
1.5
 40
1.5
 40
0.18
 40
0.18
309
CELLMARGIN_END
 94
        6
 95
        1
302
GRIDFORMAT
  1
GRIDFORMAT_BEGIN
 90
        0
 91
        1
 62
     0
 92
       -2
340
0
 93
        0
 40
0.045
309
GRIDFORMAT_END
 95
        2
302
GRIDFORMAT
  1
GRIDFORMAT_BEGIN
 90
        0
 91
        1
 62
     0
 92
       -2
340
0
 93
        0
 40
0.045
309
GRIDFORMAT_END
 95
        4
302
GRIDFORMAT
  1
GRIDFORMAT_BEGIN
 90
        0
 91
        1
 62
     0
 92
       -2
340
0
 93
        0
 40
0.045
309
GRIDFORMAT_END
 95
        8
302
GRIDFORMAT
  1
GRIDFORMAT_BEGIN
 90
        0
 91
        1
 62
     0
 92
       -2
340
0
 93
        0
 40
0.045
309
GRIDFORMAT_END
 95
       16
302
GRIDFORMAT
  1
GRIDFORMAT_BEGIN
 90
        0
 91
        1
 62
     0
 92
       -2
340
0
 93
        0
 40
0.045
309
GRIDFORMAT_END
 95
       32
302
GRIDFORMAT
  1
GRIDFORMAT_BEGIN
 90
        0
 91
        1
 62
     0
 92
       -2
340
0
 93
        0
 40
0.045
309
GRIDFORMAT_END
309
TABLEFORMAT_END
  1
CELLSTYLE_BEGIN
 90
        2
 91
        1
300
_HEADER
309
CELLSTYLE_END
300
CELLSTYLE
  1
TABLEFORMAT_BEGIN
 90
        5
170
     1
 91
        0
 92
        0
 62
   257
 93
        1
300
CONTENTFORMAT
  1
CONTENTFORMAT_BEGIN
 90
        0
 91
        0
 92
        4
 93
        0
300

 40
0.0
140
1.0
 94
        2
 62
     0
340
11
144
4.5
309
CONTENTFORMAT_END
171
     1
301
MARGIN
  1
CELLMARGIN_BEGIN
 40
1.5
 40
1.5
 40
1.5
 40
1.5
 40
0.18
 40
0.18
309
CELLMARGIN_END
 94
        6
 95
        1
302
GRIDFORMAT
  1
GRIDFORMAT_BEGIN
 90
        0
 91
        1
 62
     0
 92
       -2
340
0
 93
        0
 40
0.045
309
GRIDFORMAT_END
 95
        2
302
GRIDFORMAT
  1
GRIDFORMAT_BEGIN
 90
        0
 91
        1
 62
     0
 92
       -2
340
0
 93
        0
 40
0.045
309
GRIDFORMAT_END
 95
        4
302
GRIDFORMAT
  1
GRIDFORMAT_BEGIN
 90
        0
 91
        1
 62
     0
 92
       -2
340
0
 93
        0
 40
0.045
309
GRIDFORMAT_END
 95
        8
302
GRIDFORMAT
  1
GRIDFORMAT_BEGIN
 90
        0
 91
        1
 62
     0
 92
       -2
340
0
 93
        0
 40
0.045
309
GRIDFORMAT_END
 95
       16
302
GRIDFORMAT
  1
GRIDFORMAT_BEGIN
 90
        0
 91
        1
 62
     0
 92
       -2
340
0
 93
        0
 40
0.045
309
GRIDFORMAT_END
 95
       32
302
GRIDFORMAT
  1
GRIDFORMAT_BEGIN
 90
        0
 91
        1
 62
     0
 92
       -2
340
0
 93
        0
 40
0.045
309
GRIDFORMAT_END
309
TABLEFORMAT_END
  1
CELLSTYLE_BEGIN
 90
        3
 91
        2
300
_DATA
309
CELLSTYLE_END
  0
XRECORD
  5
EB80
102
{ACAD_REACTORS
330
5A78
102
}
330
5A78
100
AcDbXrecord
280
     1
102
ACAD_ROUNDTRIP_PRE2007_TABLESTYLE
 90
        4
 91
        0
  1

 92
        4
 93
        0
  2

 94
        4
 95
        0
  3

  0
XRECORD
  5
EB36
102
{ACAD_REACTORS
330
EB35
102
}
330
EB35
100
AcDbXrecord
280
     1
102
RTVSPropertyOp28
 70
     1
102
RTVSPropertyOp29
 70
     1
102
RTVSPropertyOp30
 70
     1
102
RTVSPropertyOp31
 70
     1
102
RTVSPropertyOp32
 70
     1
102
RTVSPropertyOp0
 70
     1
102
RTVSPropertyOp1
 70
     1
102
RTVSPropertyOp2
 70
     1
102
RTVSPropertyOp3
 70
     1
102
RTVSPropertyOp4
 70
     1
102
RTVSPropertyOp5
 70
     1
102
RTVSPropertyOp6
 70
     1
102
RTVSPropertyOp7
 70
     1
102
RTVSPropertyOp8
 70
     1
102
RTVSPropertyOp9
 70
     1
102
RTVSPropertyOp10
 70
     1
102
RTVSPropertyOp11
 70
     1
102
RTVSPropertyOp12
 70
     1
102
RTVSPropertyOp13
 70
     1
102
RTVSPropertyOp14
 70
     1
102
RTVSPropertyOp15
 70
     1
102
RTVSPropertyOp16
 70
     1
102
RTVSPropertyOp17
 70
     1
102
RTVSPropertyOp18
 70
     1
102
RTVSPropertyOp19
 70
     1
102
RTVSPropertyOp20
 70
     1
102
RTVSPropertyOp21
 70
     1
102
RTVSPropertyOp22
 70
     1
102
RTVSPropertyOp23
 70
     1
102
RTVSPropertyOp24
 70
     1
102
RTVSPropertyOp25
 70
     1
102
RTVSPropertyOp26
 70
     1
102
RTVSPropertyOp27
 70
     1
  0
XRECORD
  5
EB62
102
{ACAD_REACTORS
330
EB61
102
}
330
EB61
100
AcDbXrecord
280
     1
102
RTVSPropertyOp28
 70
     1
102
RTVSPropertyOp29
 70
     1
102
RTVSPropertyOp30
 70
     1
102
RTVSPropertyOp31
 70
     1
102
RTVSPropertyOp32
 70
     1
102
RTVSPropertyOp0
 70
     1
102
RTVSPropertyOp1
 70
     1
102
RTVSPropertyOp2
 70
     1
102
RTVSPropertyOp3
 70
     1
102
RTVSPropertyOp4
 70
     1
102
RTVSPropertyOp5
 70
     1
102
RTVSPropertyOp6
 70
     1
102
RTVSPropertyOp7
 70
     1
102
RTVSPropertyOp8
 70
     1
102
RTVSPropertyOp9
 70
     1
102
RTVSPropertyOp10
 70
     1
102
RTVSPropertyOp11
 70
     1
102
RTVSPropertyOp12
 70
     1
102
RTVSPropertyOp13
 70
     1
102
RTVSPropertyOp14
 70
     1
102
RTVSPropertyOp15
 70
     1
102
RTVSPropertyOp16
 70
     1
102
RTVSPropertyOp17
 70
     1
102
RTVSPropertyOp18
 70
     1
102
RTVSPropertyOp19
 70
     1
102
RTVSPropertyOp20
 70
     1
102
RTVSPropertyOp21
 70
     1
102
RTVSPropertyOp22
 70
     1
102
RTVSPropertyOp23
 70
     1
102
RTVSPropertyOp24
 70
     1
102
RTVSPropertyOp25
 70
     1
102
RTVSPropertyOp26
 70
     1
102
RTVSPropertyOp27
 70
     1
  0
XRECORD
  5
EB60
102
{ACAD_REACTORS
330
EB5F
102
}
330
EB5F
100
AcDbXrecord
280
     1
102
RTVSPropertyOp28
 70
     1
102
RTVSPropertyOp29
 70
     1
102
RTVSPropertyOp30
 70
     1
102
RTVSPropertyOp31
 70
     1
102
RTVSPropertyOp32
 70
     1
102
RTVSPropertyOp0
 70
     1
102
RTVSPropertyOp1
 70
     1
102
RTVSPropertyOp2
 70
     1
102
RTVSPropertyOp3
 70
     1
102
RTVSPropertyOp4
 70
     1
102
RTVSPropertyOp5
 70
     1
102
RTVSPropertyOp6
 70
     1
102
RTVSPropertyOp7
 70
     1
102
RTVSPropertyOp8
 70
     1
102
RTVSPropertyOp9
 70
     1
102
RTVSPropertyOp10
 70
     1
102
RTVSPropertyOp11
 70
     1
102
RTVSPropertyOp12
 70
     1
102
RTVSPropertyOp13
 70
     1
102
RTVSPropertyOp14
 70
     1
102
RTVSPropertyOp15
 70
     1
102
RTVSPropertyOp16
 70
     1
102
RTVSPropertyOp17
 70
     1
102
RTVSPropertyOp18
 70
     1
102
RTVSPropertyOp19
 70
     1
102
RTVSPropertyOp20
 70
     1
102
RTVSPropertyOp21
 70
     1
102
RTVSPropertyOp22
 70
     1
102
RTVSPropertyOp23
 70
     1
102
RTVSPropertyOp24
 70
     1
102
RTVSPropertyOp25
 70
     1
102
RTVSPropertyOp26
 70
     1
102
RTVSPropertyOp27
 70
     1
  0
XRECORD
  5
EB34
102
{ACAD_REACTORS
330
EB33
102
}
330
EB33
100
AcDbXrecord
280
     1
102
RTVSPropertyOp28
 70
     1
102
RTVSPropertyOp29
 70
     1
102
RTVSPropertyOp30
 70
     1
102
RTVSPropertyOp31
 70
     1
102
RTVSPropertyOp32
 70
     1
102
RTVSPropertyOp0
 70
     1
102
RTVSPropertyOp1
 70
     1
102
RTVSPropertyOp2
 70
     1
102
RTVSPropertyOp3
 70
     1
102
RTVSPropertyOp4
 70
     1
102
RTVSPropertyOp5
 70
     1
102
RTVSPropertyOp6
 70
     1
102
RTVSPropertyOp7
 70
     1
102
RTVSPropertyOp8
 70
     1
102
RTVSPropertyOp9
 70
     1
102
RTVSPropertyOp10
 70
     1
102
RTVSPropertyOp11
 70
     1
102
RTVSPropertyOp12
 70
     1
102
RTVSPropertyOp13
 70
     1
102
RTVSPropertyOp14
 70
     1
102
RTVSPropertyOp15
 70
     1
102
RTVSPropertyOp16
 70
     1
102
RTVSPropertyOp17
 70
     1
102
RTVSPropertyOp18
 70
     1
102
RTVSPropertyOp19
 70
     1
102
RTVSPropertyOp20
 70
     1
102
RTVSPropertyOp21
 70
     1
102
RTVSPropertyOp22
 70
     1
102
RTVSPropertyOp23
 70
     1
102
RTVSPropertyOp24
 70
     1
102
RTVSPropertyOp25
 70
     1
102
RTVSPropertyOp26
 70
     1
102
RTVSPropertyOp27
 70
     1
  0
XRECORD
  5
EB42
102
{ACAD_REACTORS
330
EB41
102
}
330
EB41
100
AcDbXrecord
280
     1
102
RTVSPropertyOp28
 70
     1
102
RTVSPropertyOp29
 70
     1
102
RTVSPropertyOp30
 70
     1
102
RTVSPropertyOp31
 70
     1
102
RTVSPropertyOp32
 70
     1
102
RTVSPropertyOp0
 70
     1
102
RTVSPropertyOp1
 70
     1
102
RTVSPropertyOp2
 70
     1
102
RTVSPropertyOp3
 70
     1
102
RTVSPropertyOp4
 70
     1
102
RTVSPropertyOp5
 70
     1
102
RTVSPropertyOp6
 70
     1
102
RTVSPropertyOp7
 70
     1
102
RTVSPropertyOp8
 70
     1
102
RTVSPropertyOp9
 70
     1
102
RTVSPropertyOp10
 70
     1
102
RTVSPropertyOp11
 70
     1
102
RTVSPropertyOp12
 70
     1
102
RTVSPropertyOp13
 70
     1
102
RTVSPropertyOp14
 70
     1
102
RTVSPropertyOp15
 70
     1
102
RTVSPropertyOp16
 70
     1
102
RTVSPropertyOp17
 70
     1
102
RTVSPropertyOp18
 70
     1
102
RTVSPropertyOp19
 70
     1
102
RTVSPropertyOp20
 70
     1
102
RTVSPropertyOp21
 70
     1
102
RTVSPropertyOp22
 70
     1
102
RTVSPropertyOp23
 70
     1
102
RTVSPropertyOp24
 70
     1
102
RTVSPropertyOp25
 70
     1
102
RTVSPropertyOp26
 70
     1
102
RTVSPropertyOp27
 70
     1
  0
XRECORD
  5
EB4A
102
{ACAD_REACTORS
330
EB49
102
}
330
EB49
100
AcDbXrecord
280
     1
102
RTVSPropertyOp28
 70
     1
102
RTVSPropertyOp29
 70
     1
102
RTVSPropertyOp30
 70
     1
102
RTVSPropertyOp31
 70
     1
102
RTVSPropertyOp32
 70
     1
102
RTVSPropertyOp0
 70
     1
102
RTVSPropertyOp1
 70
     1
102
RTVSPropertyOp2
 70
     1
102
RTVSPropertyOp3
 70
     1
102
RTVSPropertyOp4
 70
     1
102
RTVSPropertyOp5
 70
     1
102
RTVSPropertyOp6
 70
     1
102
RTVSPropertyOp7
 70
     1
102
RTVSPropertyOp8
 70
     1
102
RTVSPropertyOp9
 70
     1
102
RTVSPropertyOp10
 70
     1
102
RTVSPropertyOp11
 70
     1
102
RTVSPropertyOp12
 70
     1
102
RTVSPropertyOp13
 70
     1
102
RTVSPropertyOp14
 70
     1
102
RTVSPropertyOp15
 70
     1
102
RTVSPropertyOp16
 70
     1
102
RTVSPropertyOp17
 70
     1
102
RTVSPropertyOp18
 70
     1
102
RTVSPropertyOp19
 70
     1
102
RTVSPropertyOp20
 70
     1
102
RTVSPropertyOp21
 70
     1
102
RTVSPropertyOp22
 70
     1
102
RTVSPropertyOp23
 70
     1
102
RTVSPropertyOp24
 70
     1
102
RTVSPropertyOp25
 70
     1
102
RTVSPropertyOp26
 70
     1
102
RTVSPropertyOp27
 70
     1
  0
XRECORD
  5
EB3C
102
{ACAD_REACTORS
330
EB3B
102
}
330
EB3B
100
AcDbXrecord
280
     1
102
RTVSPropertyOp28
 70
     1
102
RTVSPropertyOp29
 70
     1
102
RTVSPropertyOp30
 70
     1
102
RTVSPropertyOp31
 70
     1
102
RTVSPropertyOp32
 70
     1
102
RTVSPropertyOp0
 70
     1
102
RTVSPropertyOp1
 70
     1
102
RTVSPropertyOp2
 70
     1
102
RTVSPropertyOp3
 70
     1
102
RTVSPropertyOp4
 70
     1
102
RTVSPropertyOp5
 70
     1
102
RTVSPropertyOp6
 70
     1
102
RTVSPropertyOp7
 70
     1
102
RTVSPropertyOp8
 70
     1
102
RTVSPropertyOp9
 70
     1
102
RTVSPropertyOp10
 70
     1
102
RTVSPropertyOp11
 70
     1
102
RTVSPropertyOp12
 70
     1
102
RTVSPropertyOp13
 70
     1
102
RTVSPropertyOp14
 70
     1
102
RTVSPropertyOp15
 70
     1
102
RTVSPropertyOp16
 70
     1
102
RTVSPropertyOp17
 70
     1
102
RTVSPropertyOp18
 70
     1
102
RTVSPropertyOp19
 70
     1
102
RTVSPropertyOp20
 70
     1
102
RTVSPropertyOp21
 70
     1
102
RTVSPropertyOp22
 70
     1
102
RTVSPropertyOp23
 70
     1
102
RTVSPropertyOp24
 70
     1
102
RTVSPropertyOp25
 70
     1
102
RTVSPropertyOp26
 70
     1
102
RTVSPropertyOp27
 70
     1
  0
XRECORD
  5
EB40
102
{ACAD_REACTORS
330
EB3F
102
}
330
EB3F
100
AcDbXrecord
280
     1
102
RTVSPropertyOp28
 70
     1
102
RTVSPropertyOp29
 70
     1
102
RTVSPropertyOp30
 70
     1
102
RTVSPropertyOp31
 70
     1
102
RTVSPropertyOp32
 70
     1
102
RTVSPropertyOp0
 70
     1
102
RTVSPropertyOp1
 70
     1
102
RTVSPropertyOp2
 70
     1
102
RTVSPropertyOp3
 70
     1
102
RTVSPropertyOp4
 70
     1
102
RTVSPropertyOp5
 70
     1
102
RTVSPropertyOp6
 70
     1
102
RTVSPropertyOp7
 70
     1
102
RTVSPropertyOp8
 70
     1
102
RTVSPropertyOp9
 70
     1
102
RTVSPropertyOp10
 70
     1
102
RTVSPropertyOp11
 70
     1
102
RTVSPropertyOp12
 70
     1
102
RTVSPropertyOp13
 70
     1
102
RTVSPropertyOp14
 70
     1
102
RTVSPropertyOp15
 70
     1
102
RTVSPropertyOp16
 70
     1
102
RTVSPropertyOp17
 70
     1
102
RTVSPropertyOp18
 70
     1
102
RTVSPropertyOp19
 70
     1
102
RTVSPropertyOp20
 70
     1
102
RTVSPropertyOp21
 70
     1
102
RTVSPropertyOp22
 70
     1
102
RTVSPropertyOp23
 70
     1
102
RTVSPropertyOp24
 70
     1
102
RTVSPropertyOp25
 70
     1
102
RTVSPropertyOp26
 70
     1
102
RTVSPropertyOp27
 70
     1
  0
XRECORD
  5
EB5A
102
{ACAD_REACTORS
330
EB59
102
}
330
EB59
100
AcDbXrecord
280
     1
102
RTVSPropertyOp28
 70
     0
102
RTVSPropertyOp29
 70
     0
102
RTVSPropertyOp30
 70
     0
102
RTVSPropertyOp31
 70
     0
102
RTVSPropertyOp32
 70
     0
102
RTVSPropertyOp0
 70
     0
102
RTVSPropertyOp1
 70
     0
102
RTVSPropertyOp2
 70
     0
102
RTVSPropertyOp3
 70
     0
102
RTVSPropertyOp4
 70
     0
102
RTVSPropertyOp5
 70
     0
102
RTVSPropertyOp6
 70
     0
102
RTVSPropertyOp7
 70
     0
102
RTVSPropertyOp8
 70
     0
102
RTVSPropertyOp9
 70
     0
102
RTVSPropertyOp10
 70
     0
102
RTVSPropertyOp11
 70
     0
102
RTVSPropertyOp12
 70
     0
102
RTVSPropertyOp13
 70
     0
102
RTVSPropertyOp14
 70
     2
102
RTVSPropertyOp15
 70
     0
102
RTVSPropertyOp16
 70
     0
102
RTVSPropertyOp17
 70
     0
102
RTVSPropertyOp18
 70
     0
102
RTVSPropertyOp19
 70
     0
102
RTVSPropertyOp20
 70
     0
102
RTVSPropertyOp21
 70
     0
102
RTVSPropertyOp22
 70
     0
102
RTVSPropertyOp23
 70
     0
102
RTVSPropertyOp24
 70
     0
102
RTVSPropertyOp25
 70
     0
102
RTVSPropertyOp26
 70
     0
102
RTVSPropertyOp27
 70
     0
  0
XRECORD
  5
EB48
102
{ACAD_REACTORS
330
EB47
102
}
330
EB47
100
AcDbXrecord
280
     1
102
RTVSPropertyOp28
 70
     1
102
RTVSPropertyOp29
 70
     1
102
RTVSPropertyOp30
 70
     1
102
RTVSPropertyOp31
 70
     1
102
RTVSPropertyOp32
 70
     1
102
RTVSPropertyOp0
 70
     1
102
RTVSPropertyOp1
 70
     1
102
RTVSPropertyOp2
 70
     1
102
RTVSPropertyOp3
 70
     1
102
RTVSPropertyOp4
 70
     1
102
RTVSPropertyOp5
 70
     1
102
RTVSPropertyOp6
 70
     1
102
RTVSPropertyOp7
 70
     1
102
RTVSPropertyOp8
 70
     1
102
RTVSPropertyOp9
 70
     1
102
RTVSPropertyOp10
 70
     1
102
RTVSPropertyOp11
 70
     1
102
RTVSPropertyOp12
 70
     1
102
RTVSPropertyOp13
 70
     1
102
RTVSPropertyOp14
 70
     1
102
RTVSPropertyOp15
 70
     1
102
RTVSPropertyOp16
 70
     1
102
RTVSPropertyOp17
 70
     1
102
RTVSPropertyOp18
 70
     1
102
RTVSPropertyOp19
 70
     1
102
RTVSPropertyOp20
 70
     1
102
RTVSPropertyOp21
 70
     1
102
RTVSPropertyOp22
 70
     1
102
RTVSPropertyOp23
 70
     1
102
RTVSPropertyOp24
 70
     1
102
RTVSPropertyOp25
 70
     1
102
RTVSPropertyOp26
 70
     1
102
RTVSPropertyOp27
 70
     1
  0
XRECORD
  5
EB2C
102
{ACAD_REACTORS
330
EB2B
102
}
330
EB2B
100
AcDbXrecord
280
     1
102
RTVSPropertyOp28
 70
     1
102
RTVSPropertyOp29
 70
     1
102
RTVSPropertyOp30
 70
     1
102
RTVSPropertyOp31
 70
     1
102
RTVSPropertyOp32
 70
     1
102
RTVSPropertyOp0
 70
     1
102
RTVSPropertyOp1
 70
     1
102
RTVSPropertyOp2
 70
     1
102
RTVSPropertyOp3
 70
     1
102
RTVSPropertyOp4
 70
     1
102
RTVSPropertyOp5
 70
     1
102
RTVSPropertyOp6
 70
     1
102
RTVSPropertyOp7
 70
     1
102
RTVSPropertyOp8
 70
     1
102
RTVSPropertyOp9
 70
     1
102
RTVSPropertyOp10
 70
     1
102
RTVSPropertyOp11
 70
     1
102
RTVSPropertyOp12
 70
     1
102
RTVSPropertyOp13
 70
     1
102
RTVSPropertyOp14
 70
     1
102
RTVSPropertyOp15
 70
     1
102
RTVSPropertyOp16
 70
     1
102
RTVSPropertyOp17
 70
     1
102
RTVSPropertyOp18
 70
     1
102
RTVSPropertyOp19
 70
     1
102
RTVSPropertyOp20
 70
     1
102
RTVSPropertyOp21
 70
     1
102
RTVSPropertyOp22
 70
     1
102
RTVSPropertyOp23
 70
     1
102
RTVSPropertyOp24
 70
     1
102
RTVSPropertyOp25
 70
     1
102
RTVSPropertyOp26
 70
     1
102
RTVSPropertyOp27
 70
     1
  0
XRECORD
  5
EB2E
102
{ACAD_REACTORS
330
EB2D
102
}
330
EB2D
100
AcDbXrecord
280
     1
102
RTVSPropertyOp28
 70
     1
102
RTVSPropertyOp29
 70
     1
102
RTVSPropertyOp30
 70
     1
102
RTVSPropertyOp31
 70
     1
102
RTVSPropertyOp32
 70
     1
102
RTVSPropertyOp0
 70
     1
102
RTVSPropertyOp1
 70
     1
102
RTVSPropertyOp2
 70
     1
102
RTVSPropertyOp3
 70
     1
102
RTVSPropertyOp4
 70
     1
102
RTVSPropertyOp5
 70
     1
102
RTVSPropertyOp6
 70
     1
102
RTVSPropertyOp7
 70
     1
102
RTVSPropertyOp8
 70
     1
102
RTVSPropertyOp9
 70
     1
102
RTVSPropertyOp10
 70
     1
102
RTVSPropertyOp11
 70
     1
102
RTVSPropertyOp12
 70
     1
102
RTVSPropertyOp13
 70
     1
102
RTVSPropertyOp14
 70
     1
102
RTVSPropertyOp15
 70
     1
102
RTVSPropertyOp16
 70
     1
102
RTVSPropertyOp17
 70
     1
102
RTVSPropertyOp18
 70
     1
102
RTVSPropertyOp19
 70
     1
102
RTVSPropertyOp20
 70
     1
102
RTVSPropertyOp21
 70
     1
102
RTVSPropertyOp22
 70
     1
102
RTVSPropertyOp23
 70
     1
102
RTVSPropertyOp24
 70
     1
102
RTVSPropertyOp25
 70
     1
102
RTVSPropertyOp26
 70
     1
102
RTVSPropertyOp27
 70
     1
  0
XRECORD
  5
EB30
102
{ACAD_REACTORS
330
EB2F
102
}
330
EB2F
100
AcDbXrecord
280
     1
102
RTVSPropertyOp28
 70
     1
102
RTVSPropertyOp29
 70
     1
102
RTVSPropertyOp30
 70
     1
102
RTVSPropertyOp31
 70
     1
102
RTVSPropertyOp32
 70
     1
102
RTVSPropertyOp0
 70
     1
102
RTVSPropertyOp1
 70
     1
102
RTVSPropertyOp2
 70
     1
102
RTVSPropertyOp3
 70
     1
102
RTVSPropertyOp4
 70
     1
102
RTVSPropertyOp5
 70
     1
102
RTVSPropertyOp6
 70
     1
102
RTVSPropertyOp7
 70
     1
102
RTVSPropertyOp8
 70
     1
102
RTVSPropertyOp9
 70
     1
102
RTVSPropertyOp10
 70
     1
102
RTVSPropertyOp11
 70
     1
102
RTVSPropertyOp12
 70
     1
102
RTVSPropertyOp13
 70
     1
102
RTVSPropertyOp14
 70
     1
102
RTVSPropertyOp15
 70
     1
102
RTVSPropertyOp16
 70
     1
102
RTVSPropertyOp17
 70
     1
102
RTVSPropertyOp18
 70
     1
102
RTVSPropertyOp19
 70
     1
102
RTVSPropertyOp20
 70
     1
102
RTVSPropertyOp21
 70
     1
102
RTVSPropertyOp22
 70
     1
102
RTVSPropertyOp23
 70
     1
102
RTVSPropertyOp24
 70
     1
102
RTVSPropertyOp25
 70
     1
102
RTVSPropertyOp26
 70
     1
102
RTVSPropertyOp27
 70
     1
  0
XRECORD
  5
EB32
102
{ACAD_REACTORS
330
EB31
102
}
330
EB31
100
AcDbXrecord
280
     1
102
RTVSPropertyOp28
 70
     1
102
RTVSPropertyOp29
 70
     1
102
RTVSPropertyOp30
 70
     1
102
RTVSPropertyOp31
 70
     1
102
RTVSPropertyOp32
 70
     1
102
RTVSPropertyOp0
 70
     1
102
RTVSPropertyOp1
 70
     1
102
RTVSPropertyOp2
 70
     1
102
RTVSPropertyOp3
 70
     1
102
RTVSPropertyOp4
 70
     1
102
RTVSPropertyOp5
 70
     1
102
RTVSPropertyOp6
 70
     1
102
RTVSPropertyOp7
 70
     1
102
RTVSPropertyOp8
 70
     1
102
RTVSPropertyOp9
 70
     1
102
RTVSPropertyOp10
 70
     1
102
RTVSPropertyOp11
 70
     1
102
RTVSPropertyOp12
 70
     1
102
RTVSPropertyOp13
 70
     1
102
RTVSPropertyOp14
 70
     1
102
RTVSPropertyOp15
 70
     1
102
RTVSPropertyOp16
 70
     1
102
RTVSPropertyOp17
 70
     1
102
RTVSPropertyOp18
 70
     1
102
RTVSPropertyOp19
 70
     1
102
RTVSPropertyOp20
 70
     1
102
RTVSPropertyOp21
 70
     1
102
RTVSPropertyOp22
 70
     1
102
RTVSPropertyOp23
 70
     1
102
RTVSPropertyOp24
 70
     1
102
RTVSPropertyOp25
 70
     1
102
RTVSPropertyOp26
 70
     1
102
RTVSPropertyOp27
 70
     1
  0
XRECORD
  5
EB3A
102
{ACAD_REACTORS
330
EB39
102
}
330
EB39
100
AcDbXrecord
280
     1
102
RTVSPropertyOp28
 70
     1
102
RTVSPropertyOp29
 70
     1
102
RTVSPropertyOp30
 70
     1
102
RTVSPropertyOp31
 70
     1
102
RTVSPropertyOp32
 70
     1
102
RTVSPropertyOp0
 70
     1
102
RTVSPropertyOp1
 70
     1
102
RTVSPropertyOp2
 70
     1
102
RTVSPropertyOp3
 70
     1
102
RTVSPropertyOp4
 70
     1
102
RTVSPropertyOp5
 70
     1
102
RTVSPropertyOp6
 70
     1
102
RTVSPropertyOp7
 70
     1
102
RTVSPropertyOp8
 70
     1
102
RTVSPropertyOp9
 70
     1
102
RTVSPropertyOp10
 70
     1
102
RTVSPropertyOp11
 70
     1
102
RTVSPropertyOp12
 70
     1
102
RTVSPropertyOp13
 70
     1
102
RTVSPropertyOp14
 70
     1
102
RTVSPropertyOp15
 70
     1
102
RTVSPropertyOp16
 70
     1
102
RTVSPropertyOp17
 70
     1
102
RTVSPropertyOp18
 70
     1
102
RTVSPropertyOp19
 70
     1
102
RTVSPropertyOp20
 70
     1
102
RTVSPropertyOp21
 70
     1
102
RTVSPropertyOp22
 70
     1
102
RTVSPropertyOp23
 70
     1
102
RTVSPropertyOp24
 70
     1
102
RTVSPropertyOp25
 70
     1
102
RTVSPropertyOp26
 70
     1
102
RTVSPropertyOp27
 70
     1
  0
XRECORD
  5
EB56
102
{ACAD_REACTORS
330
EB55
102
}
330
EB55
100
AcDbXrecord
280
     1
102
RTVSPropertyOp28
 70
     0
102
RTVSPropertyOp29
 70
     0
102
RTVSPropertyOp30
 70
     0
102
RTVSPropertyOp31
 70
     0
102
RTVSPropertyOp32
 70
     0
102
RTVSPropertyOp0
 70
     0
102
RTVSPropertyOp1
 70
     0
102
RTVSPropertyOp2
 70
     0
102
RTVSPropertyOp3
 70
     0
102
RTVSPropertyOp4
 70
     0
102
RTVSPropertyOp5
 70
     0
102
RTVSPropertyOp6
 70
     0
102
RTVSPropertyOp7
 70
     0
102
RTVSPropertyOp8
 70
     0
102
RTVSPropertyOp9
 70
     0
102
RTVSPropertyOp10
 70
     0
102
RTVSPropertyOp11
 70
     0
102
RTVSPropertyOp12
 70
     0
102
RTVSPropertyOp13
 70
     0
102
RTVSPropertyOp14
 70
     2
102
RTVSPropertyOp15
 70
     0
102
RTVSPropertyOp16
 70
     0
102
RTVSPropertyOp17
 70
     0
102
RTVSPropertyOp18
 70
     0
102
RTVSPropertyOp19
 70
     0
102
RTVSPropertyOp20
 70
     0
102
RTVSPropertyOp21
 70
     0
102
RTVSPropertyOp22
 70
     0
102
RTVSPropertyOp23
 70
     0
102
RTVSPropertyOp24
 70
     0
102
RTVSPropertyOp25
 70
     0
102
RTVSPropertyOp26
 70
     0
102
RTVSPropertyOp27
 70
     0
  0
XRECORD
  5
EB46
102
{ACAD_REACTORS
330
EB45
102
}
330
EB45
100
AcDbXrecord
280
     1
102
RTVSPropertyOp28
 70
     1
102
RTVSPropertyOp29
 70
     1
102
RTVSPropertyOp30
 70
     1
102
RTVSPropertyOp31
 70
     1
102
RTVSPropertyOp32
 70
     1
102
RTVSPropertyOp0
 70
     1
102
RTVSPropertyOp1
 70
     1
102
RTVSPropertyOp2
 70
     1
102
RTVSPropertyOp3
 70
     1
102
RTVSPropertyOp4
 70
     1
102
RTVSPropertyOp5
 70
     1
102
RTVSPropertyOp6
 70
     1
102
RTVSPropertyOp7
 70
     1
102
RTVSPropertyOp8
 70
     1
102
RTVSPropertyOp9
 70
     1
102
RTVSPropertyOp10
 70
     1
102
RTVSPropertyOp11
 70
     1
102
RTVSPropertyOp12
 70
     1
102
RTVSPropertyOp13
 70
     1
102
RTVSPropertyOp14
 70
     1
102
RTVSPropertyOp15
 70
     1
102
RTVSPropertyOp16
 70
     1
102
RTVSPropertyOp17
 70
     1
102
RTVSPropertyOp18
 70
     1
102
RTVSPropertyOp19
 70
     1
102
RTVSPropertyOp20
 70
     1
102
RTVSPropertyOp21
 70
     1
102
RTVSPropertyOp22
 70
     1
102
RTVSPropertyOp23
 70
     1
102
RTVSPropertyOp24
 70
     1
102
RTVSPropertyOp25
 70
     1
102
RTVSPropertyOp26
 70
     1
102
RTVSPropertyOp27
 70
     1
  0
XRECORD
  5
EB58
102
{ACAD_REACTORS
330
EB57
102
}
330
EB57
100
AcDbXrecord
280
     1
102
RTVSPropertyOp28
 70
     0
102
RTVSPropertyOp29
 70
     0
102
RTVSPropertyOp30
 70
     0
102
RTVSPropertyOp31
 70
     0
102
RTVSPropertyOp32
 70
     0
102
RTVSPropertyOp0
 70
     0
102
RTVSPropertyOp1
 70
     0
102
RTVSPropertyOp2
 70
     0
102
RTVSPropertyOp3
 70
     0
102
RTVSPropertyOp4
 70
     0
102
RTVSPropertyOp5
 70
     0
102
RTVSPropertyOp6
 70
     0
102
RTVSPropertyOp7
 70
     0
102
RTVSPropertyOp8
 70
     0
102
RTVSPropertyOp9
 70
     0
102
RTVSPropertyOp10
 70
     0
102
RTVSPropertyOp11
 70
     0
102
RTVSPropertyOp12
 70
     0
102
RTVSPropertyOp13
 70
     0
102
RTVSPropertyOp14
 70
     2
102
RTVSPropertyOp15
 70
     0
102
RTVSPropertyOp16
 70
     0
102
RTVSPropertyOp17
 70
     0
102
RTVSPropertyOp18
 70
     0
102
RTVSPropertyOp19
 70
     0
102
RTVSPropertyOp20
 70
     0
102
RTVSPropertyOp21
 70
     0
102
RTVSPropertyOp22
 70
     0
102
RTVSPropertyOp23
 70
     0
102
RTVSPropertyOp24
 70
     0
102
RTVSPropertyOp25
 70
     0
102
RTVSPropertyOp26
 70
     0
102
RTVSPropertyOp27
 70
     0
  0
XRECORD
  5
EB3E
102
{ACAD_REACTORS
330
EB3D
102
}
330
EB3D
100
AcDbXrecord
280
     1
102
RTVSPropertyOp28
 70
     1
102
RTVSPropertyOp29
 70
     1
102
RTVSPropertyOp30
 70
     1
102
RTVSPropertyOp31
 70
     1
102
RTVSPropertyOp32
 70
     1
102
RTVSPropertyOp0
 70
     1
102
RTVSPropertyOp1
 70
     1
102
RTVSPropertyOp2
 70
     1
102
RTVSPropertyOp3
 70
     1
102
RTVSPropertyOp4
 70
     1
102
RTVSPropertyOp5
 70
     1
102
RTVSPropertyOp6
 70
     1
102
RTVSPropertyOp7
 70
     1
102
RTVSPropertyOp8
 70
     1
102
RTVSPropertyOp9
 70
     1
102
RTVSPropertyOp10
 70
     1
102
RTVSPropertyOp11
 70
     1
102
RTVSPropertyOp12
 70
     1
102
RTVSPropertyOp13
 70
     1
102
RTVSPropertyOp14
 70
     1
102
RTVSPropertyOp15
 70
     1
102
RTVSPropertyOp16
 70
     1
102
RTVSPropertyOp17
 70
     1
102
RTVSPropertyOp18
 70
     1
102
RTVSPropertyOp19
 70
     1
102
RTVSPropertyOp20
 70
     1
102
RTVSPropertyOp21
 70
     1
102
RTVSPropertyOp22
 70
     1
102
RTVSPropertyOp23
 70
     1
102
RTVSPropertyOp24
 70
     1
102
RTVSPropertyOp25
 70
     1
102
RTVSPropertyOp26
 70
     1
102
RTVSPropertyOp27
 70
     1
  0
XRECORD
  5
EB54
102
{ACAD_REACTORS
330
EB53
102
}
330
EB53
100
AcDbXrecord
280
     1
102
RTVSPropertyOp28
 70
     1
102
RTVSPropertyOp29
 70
     1
102
RTVSPropertyOp30
 70
     1
102
RTVSPropertyOp31
 70
     1
102
RTVSPropertyOp32
 70
     1
102
RTVSPropertyOp0
 70
     1
102
RTVSPropertyOp1
 70
     1
102
RTVSPropertyOp2
 70
     1
102
RTVSPropertyOp3
 70
     1
102
RTVSPropertyOp4
 70
     1
102
RTVSPropertyOp5
 70
     1
102
RTVSPropertyOp6
 70
     1
102
RTVSPropertyOp7
 70
     1
102
RTVSPropertyOp8
 70
     1
102
RTVSPropertyOp9
 70
     1
102
RTVSPropertyOp10
 70
     1
102
RTVSPropertyOp11
 70
     1
102
RTVSPropertyOp12
 70
     1
102
RTVSPropertyOp13
 70
     1
102
RTVSPropertyOp14
 70
     1
102
RTVSPropertyOp15
 70
     1
102
RTVSPropertyOp16
 70
     1
102
RTVSPropertyOp17
 70
     1
102
RTVSPropertyOp18
 70
     1
102
RTVSPropertyOp19
 70
     1
102
RTVSPropertyOp20
 70
     1
102
RTVSPropertyOp21
 70
     1
102
RTVSPropertyOp22
 70
     1
102
RTVSPropertyOp23
 70
     1
102
RTVSPropertyOp24
 70
     1
102
RTVSPropertyOp25
 70
     1
102
RTVSPropertyOp26
 70
     1
102
RTVSPropertyOp27
 70
     1
  0
XRECORD
  5
EB52
102
{ACAD_REACTORS
330
EB51
102
}
330
EB51
100
AcDbXrecord
280
     1
102
RTVSPropertyOp28
 70
     1
102
RTVSPropertyOp29
 70
     1
102
RTVSPropertyOp30
 70
     1
102
RTVSPropertyOp31
 70
     1
102
RTVSPropertyOp32
 70
     1
102
RTVSPropertyOp0
 70
     1
102
RTVSPropertyOp1
 70
     1
102
RTVSPropertyOp2
 70
     1
102
RTVSPropertyOp3
 70
     1
102
RTVSPropertyOp4
 70
     1
102
RTVSPropertyOp5
 70
     1
102
RTVSPropertyOp6
 70
     1
102
RTVSPropertyOp7
 70
     1
102
RTVSPropertyOp8
 70
     1
102
RTVSPropertyOp9
 70
     1
102
RTVSPropertyOp10
 70
     1
102
RTVSPropertyOp11
 70
     1
102
RTVSPropertyOp12
 70
     1
102
RTVSPropertyOp13
 70
     1
102
RTVSPropertyOp14
 70
     1
102
RTVSPropertyOp15
 70
     1
102
RTVSPropertyOp16
 70
     1
102
RTVSPropertyOp17
 70
     1
102
RTVSPropertyOp18
 70
     1
102
RTVSPropertyOp19
 70
     1
102
RTVSPropertyOp20
 70
     1
102
RTVSPropertyOp21
 70
     1
102
RTVSPropertyOp22
 70
     1
102
RTVSPropertyOp23
 70
     1
102
RTVSPropertyOp24
 70
     1
102
RTVSPropertyOp25
 70
     1
102
RTVSPropertyOp26
 70
     1
102
RTVSPropertyOp27
 70
     1
  0
XRECORD
  5
EB4C
102
{ACAD_REACTORS
330
EB4B
102
}
330
EB4B
100
AcDbXrecord
280
     1
102
RTVSPropertyOp28
 70
     1
102
RTVSPropertyOp29
 70
     1
102
RTVSPropertyOp30
 70
     1
102
RTVSPropertyOp31
 70
     1
102
RTVSPropertyOp32
 70
     1
102
RTVSPropertyOp0
 70
     1
102
RTVSPropertyOp1
 70
     1
102
RTVSPropertyOp2
 70
     1
102
RTVSPropertyOp3
 70
     1
102
RTVSPropertyOp4
 70
     1
102
RTVSPropertyOp5
 70
     1
102
RTVSPropertyOp6
 70
     1
102
RTVSPropertyOp7
 70
     1
102
RTVSPropertyOp8
 70
     1
102
RTVSPropertyOp9
 70
     1
102
RTVSPropertyOp10
 70
     1
102
RTVSPropertyOp11
 70
     1
102
RTVSPropertyOp12
 70
     1
102
RTVSPropertyOp13
 70
     1
102
RTVSPropertyOp14
 70
     1
102
RTVSPropertyOp15
 70
     1
102
RTVSPropertyOp16
 70
     1
102
RTVSPropertyOp17
 70
     1
102
RTVSPropertyOp18
 70
     1
102
RTVSPropertyOp19
 70
     1
102
RTVSPropertyOp20
 70
     1
102
RTVSPropertyOp21
 70
     1
102
RTVSPropertyOp22
 70
     1
102
RTVSPropertyOp23
 70
     1
102
RTVSPropertyOp24
 70
     1
102
RTVSPropertyOp25
 70
     1
102
RTVSPropertyOp26
 70
     1
102
RTVSPropertyOp27
 70
     1
  0
XRECORD
  5
EB4E
102
{ACAD_REACTORS
330
EB4D
102
}
330
EB4D
100
AcDbXrecord
280
     1
102
RTVSPropertyOp28
 70
     1
102
RTVSPropertyOp29
 70
     1
102
RTVSPropertyOp30
 70
     1
102
RTVSPropertyOp31
 70
     1
102
RTVSPropertyOp32
 70
     1
102
RTVSPropertyOp0
 70
     1
102
RTVSPropertyOp1
 70
     1
102
RTVSPropertyOp2
 70
     1
102
RTVSPropertyOp3
 70
     1
102
RTVSPropertyOp4
 70
     1
102
RTVSPropertyOp5
 70
     1
102
RTVSPropertyOp6
 70
     1
102
RTVSPropertyOp7
 70
     1
102
RTVSPropertyOp8
 70
     1
102
RTVSPropertyOp9
 70
     1
102
RTVSPropertyOp10
 70
     1
102
RTVSPropertyOp11
 70
     1
102
RTVSPropertyOp12
 70
     1
102
RTVSPropertyOp13
 70
     1
102
RTVSPropertyOp14
 70
     1
102
RTVSPropertyOp15
 70
     1
102
RTVSPropertyOp16
 70
     1
102
RTVSPropertyOp17
 70
     1
102
RTVSPropertyOp18
 70
     1
102
RTVSPropertyOp19
 70
     1
102
RTVSPropertyOp20
 70
     1
102
RTVSPropertyOp21
 70
     1
102
RTVSPropertyOp22
 70
     1
102
RTVSPropertyOp23
 70
     1
102
RTVSPropertyOp24
 70
     1
102
RTVSPropertyOp25
 70
     1
102
RTVSPropertyOp26
 70
     1
102
RTVSPropertyOp27
 70
     1
  0
XRECORD
  5
EB44
102
{ACAD_REACTORS
330
EB43
102
}
330
EB43
100
AcDbXrecord
280
     1
102
RTVSPropertyOp28
 70
     1
102
RTVSPropertyOp29
 70
     1
102
RTVSPropertyOp30
 70
     1
102
RTVSPropertyOp31
 70
     1
102
RTVSPropertyOp32
 70
     1
102
RTVSPropertyOp0
 70
     1
102
RTVSPropertyOp1
 70
     1
102
RTVSPropertyOp2
 70
     1
102
RTVSPropertyOp3
 70
     1
102
RTVSPropertyOp4
 70
     1
102
RTVSPropertyOp5
 70
     1
102
RTVSPropertyOp6
 70
     1
102
RTVSPropertyOp7
 70
     1
102
RTVSPropertyOp8
 70
     1
102
RTVSPropertyOp9
 70
     1
102
RTVSPropertyOp10
 70
     1
102
RTVSPropertyOp11
 70
     1
102
RTVSPropertyOp12
 70
     1
102
RTVSPropertyOp13
 70
     1
102
RTVSPropertyOp14
 70
     1
102
RTVSPropertyOp15
 70
     1
102
RTVSPropertyOp16
 70
     1
102
RTVSPropertyOp17
 70
     1
102
RTVSPropertyOp18
 70
     1
102
RTVSPropertyOp19
 70
     1
102
RTVSPropertyOp20
 70
     1
102
RTVSPropertyOp21
 70
     1
102
RTVSPropertyOp22
 70
     1
102
RTVSPropertyOp23
 70
     1
102
RTVSPropertyOp24
 70
     1
102
RTVSPropertyOp25
 70
     1
102
RTVSPropertyOp26
 70
     1
102
RTVSPropertyOp27
 70
     1
  0
XRECORD
  5
EB38
102
{ACAD_REACTORS
330
EB37
102
}
330
EB37
100
AcDbXrecord
280
     1
102
RTVSPropertyOp28
 70
     1
102
RTVSPropertyOp29
 70
     1
102
RTVSPropertyOp30
 70
     1
102
RTVSPropertyOp31
 70
     1
102
RTVSPropertyOp32
 70
     1
102
RTVSPropertyOp0
 70
     1
102
RTVSPropertyOp1
 70
     1
102
RTVSPropertyOp2
 70
     1
102
RTVSPropertyOp3
 70
     1
102
RTVSPropertyOp4
 70
     1
102
RTVSPropertyOp5
 70
     1
102
RTVSPropertyOp6
 70
     1
102
RTVSPropertyOp7
 70
     1
102
RTVSPropertyOp8
 70
     1
102
RTVSPropertyOp9
 70
     1
102
RTVSPropertyOp10
 70
     1
102
RTVSPropertyOp11
 70
     1
102
RTVSPropertyOp12
 70
     1
102
RTVSPropertyOp13
 70
     1
102
RTVSPropertyOp14
 70
     1
102
RTVSPropertyOp15
 70
     1
102
RTVSPropertyOp16
 70
     1
102
RTVSPropertyOp17
 70
     1
102
RTVSPropertyOp18
 70
     1
102
RTVSPropertyOp19
 70
     1
102
RTVSPropertyOp20
 70
     1
102
RTVSPropertyOp21
 70
     1
102
RTVSPropertyOp22
 70
     1
102
RTVSPropertyOp23
 70
     1
102
RTVSPropertyOp24
 70
     1
102
RTVSPropertyOp25
 70
     1
102
RTVSPropertyOp26
 70
     1
102
RTVSPropertyOp27
 70
     1
  0
XRECORD
  5
EB50
102
{ACAD_REACTORS
330
EB4F
102
}
330
EB4F
100
AcDbXrecord
280
     1
102
RTVSPropertyOp28
 70
     1
102
RTVSPropertyOp29
 70
     1
102
RTVSPropertyOp30
 70
     1
102
RTVSPropertyOp31
 70
     1
102
RTVSPropertyOp32
 70
     1
102
RTVSPropertyOp0
 70
     1
102
RTVSPropertyOp1
 70
     1
102
RTVSPropertyOp2
 70
     1
102
RTVSPropertyOp3
 70
     1
102
RTVSPropertyOp4
 70
     1
102
RTVSPropertyOp5
 70
     1
102
RTVSPropertyOp6
 70
     1
102
RTVSPropertyOp7
 70
     1
102
RTVSPropertyOp8
 70
     1
102
RTVSPropertyOp9
 70
     1
102
RTVSPropertyOp10
 70
     1
102
RTVSPropertyOp11
 70
     1
102
RTVSPropertyOp12
 70
     1
102
RTVSPropertyOp13
 70
     1
102
RTVSPropertyOp14
 70
     1
102
RTVSPropertyOp15
 70
     1
102
RTVSPropertyOp16
 70
     1
102
RTVSPropertyOp17
 70
     1
102
RTVSPropertyOp18
 70
     1
102
RTVSPropertyOp19
 70
     1
102
RTVSPropertyOp20
 70
     1
102
RTVSPropertyOp21
 70
     1
102
RTVSPropertyOp22
 70
     1
102
RTVSPropertyOp23
 70
     1
102
RTVSPropertyOp24
 70
     1
102
RTVSPropertyOp25
 70
     1
102
RTVSPropertyOp26
 70
     1
102
RTVSPropertyOp27
 70
     1
  0
ENDSEC
  0
EOF
